<?xml version="1.0" standalone="no"?>
<!DOCTYPE svg PUBLIC "-//W3C//DTD SVG 1.1//EN" "http://www.w3.org/Graphics/SVG/1.1/DTD/svg11.dtd" >
<svg xmlns="http://www.w3.org/2000/svg">
<metadata>Generated by IcoMoon</metadata>
<defs>
<font id="icomoon" horiz-adv-x="1024">
<font-face units-per-em="1024" ascent="960" descent="-64" />
<missing-glyph horiz-adv-x="1024" />
<glyph unicode="&#x20;" horiz-adv-x="512" d="" />
<glyph unicode="&#xe900;" glyph-name="telephone" d="M778.514 282.604c-33.454 33.028-75.219 33.028-108.46 0-25.357-25.144-50.714-50.288-75.645-75.858-6.819-7.032-12.572-8.523-20.882-3.836-16.408 8.95-33.88 16.194-49.649 25.996-73.514 46.239-135.096 105.69-189.645 172.599-27.062 33.241-51.14 68.826-67.974 108.886-3.409 8.097-2.77 13.424 3.836 20.030 25.357 24.505 50.075 49.649 75.006 74.793 34.733 34.946 34.733 75.858-0.213 111.017-19.817 20.030-39.634 39.634-59.451 59.664-20.456 20.456-40.699 41.125-61.368 61.368-33.454 32.602-75.219 32.602-108.46-0.213-25.57-25.144-50.075-50.927-76.071-75.645-24.079-22.8-36.224-50.714-38.781-83.316-4.049-53.058 8.95-103.133 27.275-151.929 37.503-101.002 94.61-190.711 163.862-272.962 93.544-111.23 205.201-199.234 335.822-262.733 58.811-28.553 119.754-50.501 186.023-54.124 45.6-2.557 85.234 8.95 116.984 44.535 21.735 24.292 46.239 46.452 69.253 69.679 34.094 34.52 34.307 76.284 0.426 110.378-40.486 40.699-81.185 81.185-121.884 121.671zM737.814 452.432l78.628 13.424c-12.359 72.236-46.452 137.653-98.232 189.645-54.763 54.763-124.015 89.283-200.3 99.937l-11.080-79.054c59.024-8.31 112.722-34.946 155.126-77.35 40.060-40.060 66.269-90.774 75.858-146.602zM860.764 794.22c-90.774 90.774-205.627 148.094-332.412 165.78l-11.080-79.054c109.526-15.342 208.823-64.991 287.238-143.193 74.367-74.367 123.163-168.337 140.849-271.683l78.628 13.424c-20.669 119.754-77.137 228.427-163.223 314.726z" />
<glyph unicode="&#xe901;" glyph-name="email" d="M597.578 332.614c-25.476-16.984-55.068-25.962-85.578-25.962-30.508 0-60.1 8.978-85.576 25.962l-419.606 279.746c-2.328 1.552-4.596 3.17-6.818 4.834v-458.394c0-52.556 42.65-94.266 94.266-94.266h835.466c52.556 0 94.266 42.65 94.266 94.266v458.396c-2.226-1.668-4.498-3.29-6.832-4.844zM40.1 662.284l419.606-279.748c15.884-10.59 34.088-15.884 52.292-15.884 18.206 0 36.412 5.296 52.296 15.884l419.606 279.748c25.11 16.73 40.1 44.73 40.1 74.95 0 51.962-42.274 94.234-94.234 94.234h-835.532c-51.96-0.002-94.234-42.274-94.234-94.284 0-30.17 14.992-58.17 40.1-74.9z" />
<glyph unicode="&#xe902;" glyph-name="facebook" d="M406.905 390.737h-108.463c-17.516 0-22.905 6.737-22.905 22.905 0 43.789 0 88.926 0 132.716 0 17.516 6.737 24.253 22.905 24.253h108.463v96.337c-1.347 42.442 8.758 85.558 29.642 123.958 22.232 38.4 57.263 66.695 97.684 80.842 27.621 10.105 54.568 14.147 83.537 14.147h107.116c15.495 0 22.232-6.737 22.232-22.232v-124.632c0-15.495-6.737-22.232-22.232-22.232-29.642 0-59.284 0-88.926-1.347s-45.137-14.147-45.137-45.137c-1.347-33.011 0-64.674 0-98.358h125.979c17.516 0 24.253-6.737 24.253-24.253v-132.716c0-17.516-5.389-24.253-24.253-24.253h-124.632v-356.379c0-18.863-6.737-24.926-24.926-24.926h-136.758c-16.168 0-22.905 6.737-22.905 22.905z" />
<glyph unicode="&#xe903;" glyph-name="linkedin" d="M921.6 38.4v300.032c0 147.456-31.744 260.096-203.776 260.096-82.944 0-138.24-45.056-160.768-88.064h-2.048v74.752h-162.816v-546.816h169.984v271.36c0 71.68 13.312 140.288 101.376 140.288 87.040 0 88.064-80.896 88.064-144.384v-266.24h169.984zM115.712 585.216h169.984v-546.816h-169.984zM200.704 857.6c-54.272 0-98.304-44.032-98.304-98.304s44.032-99.328 98.304-99.328 98.304 45.056 98.304 99.328-44.032 98.304-98.304 98.304z" />
<glyph unicode="&#xe904;" glyph-name="youtube" d="M766.976 740.864h-509.952c-86.016 0-154.624-69.632-154.624-154.624v-275.456c0-86.016 69.632-154.624 154.624-154.624h509.952c86.016 0 154.624 69.632 154.624 154.624v275.456c0 84.992-69.632 154.624-154.624 154.624zM404.48 322.048v251.904l215.040-125.952z" />
<glyph unicode="&#xe905;" glyph-name="twitter" d="M607.324 526.406l373.010 433.594h-88.391l-323.885-376.484-258.686 376.484h-298.363l391.184-569.31-391.184-454.69h88.396l342.031 397.58 273.191-397.58h298.363l-405.688 590.406zM486.253 385.674l-354.997 507.782h135.772l624.957-893.939h-135.772l-269.96 386.135z" />
<glyph unicode="&#xe906;" glyph-name="shopping-carts" d="M153.6 908.8c-13.579 0-26.602-5.394-36.204-14.996s-14.996-22.625-14.996-36.204 5.394-26.602 14.996-36.204c9.602-9.602 22.625-14.996 36.204-14.996h62.464l15.616-62.566c0.155-0.72 0.326-1.437 0.512-2.15l69.53-278.016-45.722-45.67c-64.512-64.512-18.842-174.797 72.397-174.797h439.603c13.578 0 26.604 5.396 36.204 14.996s14.996 22.625 14.996 36.204-5.396 26.604-14.996 36.204-22.625 14.996-36.204 14.996h-439.603l51.2 51.2h337.203c9.508 0.005 18.821 2.657 26.906 7.66 8.084 4.997 14.618 12.15 18.867 20.654l153.6 307.2c3.901 7.804 5.74 16.475 5.35 25.19-0.394 8.715-3.005 17.186-7.593 24.608s-10.993 13.549-18.611 17.8c-7.619 4.251-16.195 6.484-24.919 6.489h-548.864l-15.872 63.642c-2.774 11.072-9.167 20.899-18.165 27.921s-20.085 10.836-31.499 10.837zM819.2 115.2c0-20.367-8.090-39.905-22.492-54.308s-33.94-22.492-54.308-22.492-39.905 8.090-54.308 22.492-22.492 33.94-22.492 54.308 8.090 39.905 22.492 54.308 33.94 22.492 54.308 22.492 39.905-8.090 54.308-22.492 22.492-33.94 22.492-54.308zM332.8 38.4c20.368 0 39.903 8.090 54.306 22.492s22.494 33.94 22.494 54.308-8.092 39.905-22.494 54.308-33.937 22.492-54.306 22.492-39.903-8.090-54.306-22.492-22.494-33.94-22.494-54.308 8.092-39.905 22.494-54.308 33.937-22.492 54.306-22.492z" />
<glyph unicode="&#xe907;" glyph-name="search" d="M991.284 27.298l-243.714 253.474c62.663 74.491 96.997 168.216 96.997 265.788 0 227.967-185.473 413.44-413.44 413.44s-413.44-185.473-413.44-413.44 185.473-413.44 413.44-413.44c85.582 0 167.137 25.813 236.865 74.815l245.565-255.398c10.264-10.66 24.069-16.538 38.863-16.538 14.003 0 27.287 5.339 37.371 15.046 21.427 20.618 22.11 54.808 1.492 76.253zM431.128 852.146c168.504 0 305.586-137.082 305.586-305.586s-137.082-305.586-305.586-305.586-305.586 137.082-305.586 305.586 137.082 305.586 305.586 305.586z" />
<glyph unicode="&#xe908;" glyph-name="search-interface-symbol" d="M1014.294-8.29l-264.38 260.155c69.233 75.219 111.771 174.698 111.771 284.164-0.033 234.168-192.91 423.971-430.854 423.971s-430.821-189.803-430.821-423.971 192.877-423.971 430.821-423.971c102.808 0 197.102 35.56 271.168 94.678l265.406-261.181c12.932-12.74 33.927-12.74 46.859 0 12.962 12.738 12.962 33.415 0.030 46.155zM430.831 177.289c-201.326 0-364.533 160.613-364.533 358.74s163.207 358.74 364.533 358.74c201.328 0 364.533-160.613 364.533-358.74s-163.205-358.74-364.533-358.74z" />
<glyph unicode="&#xe909;" glyph-name="loupe" d="M1011.488 8.835l-291.197 291.197c56.405 69.673 90.367 158.206 90.367 254.632 0 223.486-181.844 405.33-405.33 405.33s-405.328-181.842-405.328-405.328 181.844-405.33 405.33-405.33c96.425 0 184.958 33.962 254.632 90.367l291.197-291.197c8.32-8.32 19.242-12.502 30.166-12.502s21.846 4.182 30.166 12.502c16.682 16.682 16.682 43.648-0.002 60.329zM405.33 234.669c-176.468 0-319.997 143.529-319.997 319.997s143.529 319.997 319.997 319.997 319.997-143.529 319.997-319.997-143.531-319.997-319.997-319.997z" />
<glyph unicode="&#xe90a;" glyph-name="paper-plane" d="M970.069 819.328c3.072 20.224-5.547 40.491-22.229 52.395-16.683 11.861-38.656 13.355-56.789 3.84-145.109-76.203-652.715-342.699-808.619-424.533-19.243-10.069-30.592-30.635-28.928-52.267s16-40.235 36.565-47.275c60.715-20.779 134.912-46.251 251.264-86.144l469.333 438.656-379.819-469.333c124.075-42.539 318.080-109.056 366.763-125.739 15.232-5.248 32.043-3.413 45.824 4.907 13.781 8.363 23.125 22.4 25.557 38.357zM376.832 208.085v-139.52c0-21.419 12.587-40.832 32.085-49.579 19.541-8.789 42.368-5.291 58.368 8.96l121.088 107.605z" />
<glyph unicode="&#xe90b;" glyph-name="maps-and-flags" d="M512 960c-204.49 0-370.854-166.364-370.854-370.852 0-253.776 331.878-626.334 346.008-642.070 13.272-14.782 36.444-14.756 49.692 0 14.13 15.736 346.008 388.294 346.008 642.070-0.004 204.488-166.366 370.852-370.854 370.852zM512 402.562c-102.884 0-186.584 83.702-186.584 186.586s83.702 186.584 186.584 186.584 186.582-83.702 186.582-186.586-83.7-186.584-186.582-186.584z" />
<glyph unicode="&#xe90c;" glyph-name="menu-bar" d="M810.667 661.333c0 23.564-19.102 42.667-42.667 42.667h-512c-23.564 0-42.667-19.103-42.667-42.667s19.103-42.667 42.667-42.667h512c23.565 0 42.667 19.103 42.667 42.667zM810.667 448c0 23.565-19.102 42.667-42.667 42.667h-341.333c-23.564 0-42.667-19.102-42.667-42.667s19.103-42.667 42.667-42.667h341.333c23.565 0 42.667 19.102 42.667 42.667zM768 277.333c23.565 0 42.667-19.102 42.667-42.667s-19.102-42.667-42.667-42.667h-512c-23.564 0-42.667 19.102-42.667 42.667s19.103 42.667 42.667 42.667z" />
<glyph unicode="&#xe90d;" glyph-name="world" d="M195.299 87.227c-0.326 0.292-0.663 0.572-1.013 0.838-10.439 8.665-20.879 17.956-30.483 27.56-6.102 6.037-15.925 6.037-22.027 0-6.107-6.115-6.107-16.017 0-22.131 10.439-10.439 20.879-20.148 32.571-29.543 6.428-5.786 16.33-5.264 22.116 1.164 5.783 6.428 5.264 16.327-1.164 22.113zM31.417 551.472c-8.164 2.853-17.094-1.456-19.947-9.62-0.423-1.211-0.697-2.472-0.812-3.748-3.132-14.302-5.533-28.813-7.308-43.323-1.117-8.487 4.786-16.298 13.258-17.538h1.983c7.926-0.005 14.605 5.911 15.555 13.78 1.67 13.571 3.967 27.247 6.89 40.505 2.853 8.164-1.456 17.094-9.62 19.944zM117.453 170.222c-8.038 11.066-15.659 22.549-22.653 34.241-4.421 7.433-14.030 9.876-21.463 5.455-0.013-0.008-0.029-0.016-0.042-0.026-7.433-4.421-9.876-14.030-5.455-21.463 0.008-0.013 0.016-0.029 0.026-0.042 7.516-12.527 15.659-24.846 24.324-36.642 5.342-6.801 15.187-7.981 21.988-2.639 6.47 5.084 7.903 14.31 3.275 21.116zM62.855 268.978c-5.011 12.632-9.604 25.681-13.467 38.834-2.409 8.304-11.097 13.086-19.402 10.677-0.146-0.042-0.29-0.086-0.433-0.133-8.218-2.511-12.877-11.178-10.439-19.417 4.176-13.989 8.978-27.977 14.406-41.757 3.257-8.101 12.465-12.026 20.565-8.769s12.026 12.465 8.769 20.565zM72.198 658.836c-7.725 3.891-17.144 0.783-21.035-6.942-6.577-13.049-12.632-26.516-17.956-40.191-3.14-8.012 0.778-17.058 8.769-20.252 8.041-3.184 17.141 0.752 20.325 8.793 0.010 0.026 0.021 0.055 0.031 0.081 5.011 12.736 10.439 25.368 16.807 37.477 3.891 7.725 0.783 17.141-6.942 21.035zM34.674 377.921c-0.003 0.013-0.003 0.029-0.005 0.042-1.67 13.571-2.819 27.351-3.341 40.922-0.316 8.649-7.584 15.401-16.233 15.085s-15.401-7.584-15.085-16.233c0-14.615 1.67-29.335 3.549-43.845 1.070-7.589 7.477-13.287 15.137-13.467h2.401c8.581 1.083 14.659 8.918 13.576 17.496zM450.103 900.297c-0.835 8.649-8.524 14.98-17.173 14.145-14.511-1.462-29.126-3.549-43.532-6.368-8.649-0.806-15.004-8.472-14.198-17.121s8.472-15.004 17.121-14.198l-0.104 0.418h3.027c13.467 2.61 27.142 4.593 40.713 5.95 8.649 0.835 14.98 8.524 14.145 17.173zM140.211 753.573c-6.514 5.765-16.471 5.157-22.236-1.357-9.604-10.961-18.791-22.549-27.351-34.45-5.074-7.002-3.51-16.794 3.495-21.868 2.659-1.926 5.854-2.967 9.137-2.978v-0.209c5.040-0.018 9.779 2.391 12.736 6.472 8.038 11.066 16.599 21.923 25.576 32.153 5.765 6.514 5.157 16.468-1.357 22.236zM553.295 911.833c-14.406 2.192-29.126 3.758-43.741 4.593-8.649 0.519-16.079-6.070-16.599-14.719s6.070-16.079 14.719-16.599c13.78-1.044 27.455-2.505 40.922-4.593h2.401c8.649-0.634 16.173 5.862 16.807 14.511 0.634 8.646-5.862 16.173-14.511 16.807zM229.141 828.185c-4.899 6.652-14.122 8.357-21.074 3.891-12.005-8.247-23.802-17.225-35.076-26.516-6.66-5.535-7.571-15.419-2.036-22.079s15.419-7.571 22.079-2.036c10.439 8.769 21.505 17.121 32.78 24.846 6.966 5.126 8.453 14.928 3.328 21.894zM281.664 840.845c-0.052 0-0.102 0.010-0.154 0.010-0.055 0-0.107-0.010-0.159-0.010h0.313zM336.88 877.524c-2.289 8.338-10.906 13.245-19.248 10.953-0.733-0.201-1.451-0.457-2.148-0.762-13.676-5.011-27.351-10.439-40.505-17.016-7.843-3.649-11.241-12.963-7.592-20.803 2.558-5.499 8.064-9.012 14.119-9.043 2.26 0.044 4.486 0.569 6.522 1.555 12.318 5.846 25.054 11.17 37.895 15.868 8.344 2.291 13.248 10.909 10.956 19.248zM526.205-28.282c-0.548 8.649-8.002 15.215-16.651 14.667-13.676-1.044-27.455-1.357-41.131-0.94-8.649 0.23-15.847-6.592-16.077-15.241s6.592-15.847 15.241-16.077h13.258c10.439 0 20.879 0 30.692 0.94 8.649 0.545 15.215 8.002 14.667 16.651zM936.054 334.485c-8.388 2.132-16.92-2.939-19.052-11.327-3.341-13.258-7.412-26.412-12.005-39.252-2.722-8.064 1.495-16.828 9.5-19.73 8.14-2.92 17.107 1.313 20.028 9.453 0.005 0.016 0.010 0.031 0.016 0.047 4.906 13.78 9.187 27.873 12.84 41.757 2.135 8.388-2.939 16.917-11.327 19.052zM956.045 513.781c-2.401 14.406-5.428 28.917-9.082 43.010-2.5 8.278-11.241 12.963-19.519 10.46-7.848-2.37-12.538-10.392-10.755-18.394 3.445-13.154 6.264-26.725 8.56-40.191 1.349-7.378 7.741-12.762 15.241-12.84h2.61c8.532 1.386 14.325 9.422 12.945 17.956zM1022.599 693.512c-0.736 1.6-1.743 3.059-2.978 4.311l-27.664 28.813c-3.962 3.957-9.784 5.402-15.137 3.758l-49.9-15.137-58.46 62.010 131.222 73.075c7.647 3.521 10.99 12.574 7.467 20.218-0.736 1.6-1.743 3.059-2.978 4.311l-36.851 36.851c-4.017 3.86-9.821 5.222-15.137 3.549l-166.299-50.318-55.955 59.4c-14.26 16.489-37.475 21.998-57.625 13.676h-0.94c-15.192-6.253-27.257-18.318-33.51-33.51-1.576-3.967-2.696-8.098-3.341-12.318l-6.368 2.192c-8.244 2.652-17.079-1.882-19.73-10.126s1.882-17.079 10.126-19.73c8.038-2.61 16.077-5.533 24.115-8.56 2.419-3.784 5.256-7.287 8.456-10.439l58.982-55.955-16.912-55.85c-165.406 117.988-395.142 79.548-513.13-85.858s-79.548-395.139 85.858-513.127c165.406-117.988 395.142-79.548 513.13 85.858 94.090 131.904 90.807 309.834-8.085 438.176l26.725 48.23 62.010-58.46-14.928-49.378c-1.798-5.426-0.384-11.402 3.654-15.45 0 0 30.587-30.274 31.318-31.318 7.232-4.191 16.494-1.728 20.688 5.504 0.065 0.112 0.13 0.227 0.191 0.342l40.818 74.85 73.702 40.191c7.647 3.523 10.99 12.577 7.467 20.221zM243.143 672.876c62.936 62.907 148.301 98.211 237.286 98.13 6.96 0 13.918-0.209 20.879-0.626 59.191-54.598 41.757-104.393 2.088-149.283-23.41-24.827-48.525-47.99-75.163-69.317-38.521-32.78-74.432-63.367-88.004-93.954-16.077-36.329-4.28-69.213 60.653-97.921 32.466-14.406 50.109-25.576 56.999-34.032 0.102-0.123 0.201-0.209 0.303-0.284-0.214-0.065-0.431-0.136-0.72-0.237-15.722-5.987-32.456-8.858-49.274-8.456-78.713-3.341-134.772 46.977-178.304 85.916-31.318 27.873-57.312 51.048-84.35 51.257 4.468 82.468 39.228 160.387 97.608 218.809zM817.202 435.068h0.104c-0.047-145.498-93.581-274.492-231.858-319.757-3.883 24.467 0.642 49.529 12.84 71.092 16.541 26.566 37.764 49.908 62.636 68.9 96.355 80.383 101.784 125.272 105.959 159.826 2.61 21.818 4.593 38.104 47.708 61.801 1.73-13.887 2.602-27.868 2.61-41.862zM797.785 548.022c4.666-13.143 8.5-26.568 11.483-40.191-65.663-33.406-68.586-57.208-72.553-89.674-3.549-29.23-8.143-67.438-95.207-140.096-27.886-21.335-51.596-47.629-69.944-77.564-15.996-28.275-21.539-61.274-15.659-93.223-181.094-41.397-361.457 71.849-402.854 252.94-4.734 20.712-7.495 41.825-8.247 63.059 16.599 0 38.104-19.73 64.515-43.219 47.812-42.697 108.987-97.19 200.122-93.954 21.474-0.371 42.793 3.68 62.636 11.901 8.365 3.698 14.696 10.867 17.329 19.626 2.224 9.769-0.598 20.002-7.516 27.247-9.813 12.005-31.318 26.203-68.273 42.697-44.158 19.522-53.763 38.521-45.098 57.938 10.439 24.428 44.054 52.197 79.757 83.515 27.821 22.484 54.018 46.901 78.399 73.075 43.636 49.691 66.081 103.871 21.714 163.167 49.308-10.079 95.7-31.172 135.711-61.696l-24.010-79.235c-1.772-5.428-0.363-11.392 3.654-15.45 0 0 38.939-38.626 40.191-39.356 7.232-4.191 16.494-1.728 20.688 5.504 0.065 0.112 0.128 0.227 0.191 0.342l30.378 54.911c17.932-25.321 32.265-53.006 42.593-82.262zM937.776 664.629l-13.467-6.681c-3.014-1.495-5.442-3.957-6.89-6.994l-6.681-13.571-25.994-46.977-7.621 8.351 15.137 50.004c1.764 5.859-0.172 12.201-4.906 16.077l-82.366 77.564c-5.963 5.859-15.547 5.773-21.406-0.191-0.141-0.144-0.277-0.287-0.412-0.436-1.044-1.148-75.163-134.667-75.163-134.667l-16.181 16.181 50.526 166.507c1.811 5.89-0.13 12.29-4.906 16.181l-65.559 61.696c-7.255 6.146-9.667 16.301-5.95 25.054 3.33 7.584 9.411 13.626 17.016 16.912h0.522c8.646 3.338 18.457 0.822 24.428-6.264l62.636-66.185c3.933-4.223 9.925-5.843 15.45-4.176l167.029 50.422 16.181-16.181-132.58-72.867c-7.339-4.003-10.043-13.201-6.037-20.537 0.063-0.115 0.125-0.227 0.191-0.342 0.626-1.148 80.487-86.125 80.487-86.125 3.957-4.186 9.946-5.765 15.45-4.071l50.213 15.137 7.83-7.83-46.977-25.994zM897.444 224.434c-0.227 0.133-0.459 0.264-0.694 0.384-7.482 3.912-16.719 1.187-20.879-6.159-6.577-12.005-13.78-23.802-21.505-35.076-4.987-7.091-3.281-16.883 3.81-21.87s16.883-3.281 21.87 3.81c8.143 12.11 15.868 24.741 22.967 37.477 4.382 7.459 1.887 17.055-5.569 21.435zM946.963 453.024c-8.646 0.117-15.753-6.796-15.873-15.442-0.003-0.211-0.003-0.423 0.005-0.634v-1.775c0-13.676-0.626-27.455-1.879-41.131-0.783-8.612 5.562-16.231 14.174-17.014 0.008 0 0.016-0.003 0.023-0.003h1.462c8.26-0.078 15.158 6.274 15.763 14.511 1.357 14.511 1.983 29.23 1.983 43.845v2.088c-0.057 8.607-7.052 15.555-15.659 15.555zM397.123-6.725c-13.571 2.297-27.038 5.22-40.087 9.187-8.158 2.868-17.097-1.42-19.968-9.578s1.42-17.097 9.578-19.968c0.598-0.211 1.211-0.384 1.829-0.522 13.989-3.967 28.395-7.412 42.801-10.439h2.923c8.649-0.806 16.314 5.549 17.121 14.198s-5.549 16.314-14.198 17.123zM639.412-1.967c-2.832 7.689-11.113 11.896-18.992 9.646v-0.418c-12.945-4.28-26.307-7.934-39.565-10.439-8.445-1.903-13.751-10.293-11.849-18.739s10.293-13.751 18.739-11.849c14.198 3.236 28.499 7.203 42.384 11.692 8.117 2.991 12.271 11.992 9.283 20.106zM289.702 27.412c-12.423 6.159-24.637 12.84-36.433 19.522-7.467 4.382-17.071 1.882-21.453-5.585s-1.882-17.071 5.585-21.453c12.632-7.412 25.681-14.302 38.939-20.879 7.84-3.69 17.188-0.324 20.879 7.516s0.326 17.188-7.516 20.879zM830.917 128.141c-6.274 5.729-15.975 5.41-21.857-0.723h0.104c-9.395-10.439-19.313-19.626-29.439-28.708-6.457-5.765-7.018-15.675-1.253-22.131s15.675-7.018 22.131-1.253c10.439 9.709 21.505 20.044 31.318 30.692 5.833 6.389 5.381 16.293-1.005 22.124zM744.521 50.034c-4.437 7.422-14.051 9.842-21.476 5.405-0.251-0.149-0.496-0.305-0.736-0.47v0.418c-11.483-7.308-23.489-14.198-35.598-20.879-7.696-3.949-10.734-13.391-6.786-21.087s13.391-10.734 21.087-6.786c12.945 6.681 25.785 14.093 38.104 21.923 7.422 4.439 9.844 14.054 5.405 21.476z" />
<glyph unicode="&#xe90e;" glyph-name="destination-flag" d="M896.057 831.482c-111.457-56.571-224.886-16.057-344.971 26.743-127.604 45.484-259.173 91.952-393.141 22.452-4.684 9.904-14.593 16.863-26.287 16.863-16.171 0-29.257-13.086-29.257-29.257v-829.886h-29.257c-16.171 0-29.257-13.086-29.257-29.257s13.086-29.257 29.257-29.257h117.029c16.171 0 29.257 13.086 29.257 29.257s-13.086 29.257-29.257 29.257h-29.257v227.738c120.155 77.161 241.898 34.157 370.514-11.68 151.832-54.122 283.838-95.197 422.171-5.943 16.371 10.6 26.514 29.457 26.514 49.257v481.114c0 43.355-45.665 72.104-84.057 52.6zM160.914 333.939v481.229c58.866 37.868 118.116 46.639 178.371 40.448v-489.641c-62.193 5.709-120.498-2.721-178.371-32.036zM551.057 309.567c-50.493 17.998-101.611 36.218-153.257 47.354v488.484c43.848-10.389 88.313-26.136 133.657-42.295 126.114-44.971 256.571-91.486 390.143-24.286l0.257-481.171c-120.143-77.486-241.857-34.029-370.8 11.914zM659.714 699.082c-76.343 0-138.457-62.086-138.457-138.429 0-12.743 0-51.486 75.4-180.571 13.229-22.629 36.771-36.114 63.029-36.114 26.286 0 49.829 13.486 63.057 36.114 75.4 128.971 75.4 167.8 75.4 180.571 0 76.343-62.086 138.429-138.429 138.429zM672.229 409.625c-3.771-6.457-10.029-7.143-12.543-7.143-2.486 0-8.743 0.686-12.514 7.114-62.543 107.086-67.4 142.686-67.4 151.057 0 44.057 35.857 79.914 79.943 79.914 44.057 0 79.914-35.857 79.914-79.914 0-8.4-4.857-44.057-67.4-151.029zM659.714 595.567c-19.257 0-34.943-15.657-34.943-34.914s15.686-34.914 34.943-34.914 34.914 15.657 34.914 34.914-15.657 34.914-34.914 34.914z" />
<glyph unicode="&#xe90f;" glyph-name="goal" d="M966.171 822.344l-43.758 38.531 43.758 38.523c6.805 6 9.133 15.352 5.937 23.836-3.211 8.492-11.141 13.977-20.211 13.977h-181.078v7.781c0 8.289-6.719 15.008-15.008 15.008s-15.008-6.719-15.008-15.008v-202.406l-123.258-66.93c-0.68 5.422-2.305 10.75-4.875 15.766l-17.367 33.906c-11.922 23.281-40.562 32.508-63.828 20.594l-13.43-6.875c-11.281-5.781-19.633-15.594-23.523-27.656-3.891-12.055-2.852-24.906 2.93-36.18l17.367-33.914c4.055-7.914 10.047-14.18 17.094-18.57-9.219-12.414-13.594-27.68-18.094-43.539l-3.234-11.453c-2.258-7.977 2.383-16.273 10.359-18.523 1.359-0.391 2.734-0.57 4.086-0.57 6.547 0 12.562 4.312 14.437 10.93l3.234 11.43c6.578 23.195 10.617 35.617 23.477 42.601l23.055 12.523 2.844 1.453c0.945 0.484 1.828 1.031 2.727 1.57l164.312 89.226c-1.039-20.539-12.094-39.945-30.297-51l-106.851-64.922c-0.125-0.070-0.25-0.141-0.367-0.219l-33.258-20.203c-7.078-4.305-9.336-13.539-5.031-20.625 4.055-6.68 12.492-9.055 19.375-5.703l-25.234-76.281-68.601-28.117 14.453 51.094c2.25 7.977-2.383 16.273-10.359 18.531-7.984 2.266-16.273-2.383-18.531-10.359l-22.836-80.758c-0.297-1.039-0.492-2.18-0.539-3.266l-5.977-109.781c-0.18-4.187 0.711-12.102-1.227-16.187l-66.375-139.64h-48.234c-28.258 0-51.242-22.984-51.242-51.234v-43.32c-6.469 2.961-13.648 4.617-21.219 4.617h-122.492c-28.25 0-51.234-22.977-51.234-51.234v-53.75h-36.031c-8.289 0-15.008-6.719-15.008-15.008s6.719-15.008 15.008-15.008h884.873c8.289 0 15.008 6.719 15.008 15.008s-6.719 15.008-15.008 15.008h-39.031v386.835c0 28.25-22.984 51.234-51.234 51.234h-90.797v261.82c16.641 22.555 22.805 52.117 15.078 80.211-1.211 4.414-4.375 8.039-8.594 9.828-2.070 0.883-4.289 1.273-6.484 1.187v27.398h181.070c9.078 0 17.008 5.484 20.211 13.969s0.875 17.844-5.93 23.844zM523.094 702.172c1.43 4.43 4.492 8.039 8.633 10.156l13.43 6.875c2.531 1.297 5.234 1.914 7.906 1.914 6.328 0 12.445-3.461 15.523-9.469l17.375-33.914c4.055-7.922 1.43-17.523-5.781-22.375l-4.891-2.648-10.32-5.289c-8.539-4.375-19.055-0.984-23.43 7.562l-17.375 33.906c-2.117 4.141-2.5 8.859-1.070 13.281zM492.938 156.322c-5.102 2.328-10.648 3.852-16.477 4.391l16.477 21.883zM564.195 277.251c7.219 8.648 9.211 18.75 10.82 26.891 0.406 1.937 7.812 42.391 7.812 42.391s7.008-4.367 7.742-4.68c0.508-0.227 0.867-0.727 0.922-1.312l8.164-82.992h-50.297zM652.945 360.087l-12.672-102.469h-10.461l-8.445 85.859c-1.078 11-7.812 20.602-17.68 25.375l-15.094 9.57 10.055 55.726s42.359-50.32 43.344-51.601c8.766-11.398 11.766-15.961 10.953-22.461zM490.836 287.454c3.031 9.125 4.437 18.414 4.203 27.859l5.453 100.125 69.414 28.445-12.617-69.89c-0.039-0.187-0.078-0.383-0.102-0.57l-10.437-57.789c-1.359-5.984-2.547-15.062-6.281-19.992l-101.414-134.703h-8.359zM133.055 19.775c0 11.695 9.516 21.211 21.219 21.211h122.492c11.703 0 21.227-9.516 21.227-21.211v-53.758h-164.937zM328 19.775v89.93c0 11.703 9.523 21.219 21.227 21.219h122.492c11.703 0 21.219-9.516 21.219-21.219v-143.687h-164.929v53.758zM882.835 352.853v-386.835h-164.929v89.984c0 8.289-6.719 15.008-15.008 15.008-8.297 0-15.016-6.719-15.016-15.008v-89.984h-164.929v240.304c0 11.695 9.516 21.211 21.219 21.211h122.492c11.703 0 21.219-9.516 21.219-21.211v-75.234c0-8.289 6.719-15.008 15.008-15.008 8.297 0 15.008 6.719 15.008 15.008v221.765c0 11.703 9.523 21.219 21.227 21.219h16.531c0.047 0 0.102-0.008 0.156-0.008 0.047 0 0.102 0.008 0.148 0.008h105.648c11.703 0 21.227-9.523 21.227-21.219zM739.125 404.087c-28.25 0-51.234-22.984-51.234-51.234v-99.922c-5.375 2.453-11.234 4.008-17.398 4.461l12.242 99c2.406 19.297-7.437 32.086-16.953 44.461-1.008 1.312-59.344 70.578-59.344 70.578l35.789 108.203 98.578 59.891v-235.437zM770.82 814.555v92.633h158.773l-34.195-30.109c-4.656-4.102-7.328-10.008-7.328-16.211s2.672-12.109 7.328-16.211l34.195-30.109h-158.773z" />
<glyph unicode="&#xe910;" glyph-name="phone-call" d="M809.283 325.668c-20.964 21.828-46.25 33.499-73.049 33.499-26.583 0-52.085-11.454-73.914-33.283l-68.295-68.078c-5.619 3.026-11.238 5.835-16.641 8.645-7.78 3.89-15.129 7.564-21.396 11.454-63.972 40.631-122.109 93.581-177.869 162.092-27.015 34.147-45.17 62.892-58.353 92.068 17.722 16.209 34.147 33.067 50.14 49.276 6.051 6.051 12.103 12.319 18.154 18.37 45.386 45.386 45.386 104.171 0 149.557l-59.001 59.001c-6.7 6.7-13.616 13.616-20.099 20.532-12.967 13.4-26.583 27.231-40.631 40.199-20.964 20.748-46.034 31.77-72.401 31.77s-51.869-11.022-73.482-31.77c-0.216-0.216-0.216-0.216-0.432-0.432l-73.482-74.13c-27.664-27.664-43.441-61.379-46.899-100.497-5.187-63.108 13.4-121.893 27.664-160.363 35.012-94.445 87.313-181.975 165.333-275.772 94.662-113.032 208.558-202.29 338.664-265.182 49.708-23.557 116.058-51.437 190.188-56.192 4.539-0.216 9.293-0.432 13.616-0.432 49.924 0 91.852 17.938 124.703 53.598 0.216 0.432 0.648 0.648 0.864 1.081 11.238 13.616 24.206 25.935 37.821 39.118 9.293 8.861 18.803 18.154 28.096 27.88 21.396 22.261 32.634 48.195 32.634 74.778 0 26.799-11.454 52.518-33.283 74.13l-118.651 119.083zM886.654 98.092c-0.216 0-0.216-0.216 0 0-8.429-9.077-17.074-17.29-26.367-26.367-14.048-13.4-28.312-27.448-41.712-43.224-21.828-23.341-47.547-34.363-81.262-34.363-3.242 0-6.7 0-9.942 0.216-64.188 4.106-123.838 29.176-168.575 50.573-122.325 59.217-229.738 143.289-318.996 249.837-73.698 88.826-122.974 170.953-155.608 259.131-20.099 53.814-27.448 95.742-24.206 135.293 2.161 25.286 11.887 46.25 29.825 64.188l73.698 73.698c10.59 9.942 21.828 15.345 32.851 15.345 13.616 0 24.638-8.213 31.554-15.129 0.216-0.216 0.432-0.432 0.648-0.648 13.183-12.319 25.719-25.070 38.902-38.686 6.7-6.916 13.616-13.832 20.532-20.964l59.001-59.001c22.909-22.909 22.909-44.089 0-66.998-6.268-6.268-12.319-12.535-18.587-18.587-18.154-18.587-35.444-35.876-54.247-52.734-0.432-0.432-0.864-0.648-1.081-1.081-18.587-18.587-15.129-36.741-11.238-49.060 0.216-0.648 0.432-1.297 0.648-1.945 15.345-37.173 36.957-72.185 69.807-113.896l0.216-0.216c59.65-73.482 122.541-130.754 191.917-174.627 8.861-5.619 17.938-10.158 26.583-14.48 7.78-3.89 15.129-7.564 21.396-11.454 0.864-0.432 1.729-1.081 2.593-1.513 7.348-3.674 14.264-5.403 21.396-5.403 17.938 0 29.176 11.238 32.851 14.912l73.914 73.914c7.348 7.348 19.019 16.209 32.634 16.209 13.4 0 24.422-8.429 31.122-15.777 0.216-0.216 0.216-0.216 0.432-0.432l119.083-119.083c22.261-22.044 22.261-44.737 0.216-67.646zM553.394 716.417c56.624-9.509 108.061-36.309 149.124-77.372s67.646-92.5 77.372-149.124c2.377-14.264 14.696-24.206 28.744-24.206 1.729 0 3.242 0.216 4.971 0.432 15.993 2.593 26.583 17.722 23.99 33.715-11.671 68.511-44.089 130.97-93.581 180.462s-111.951 81.91-180.462 93.581c-15.993 2.593-30.905-7.997-33.715-23.773s7.564-31.122 23.557-33.715zM1022.811 508.292c-19.235 112.816-72.401 215.474-154.095 297.168s-184.352 134.86-297.168 154.095c-15.777 2.81-30.689-7.997-33.499-23.773-2.593-15.993 7.997-30.905 23.99-33.715 100.713-17.074 192.565-64.837 265.614-137.67 73.049-73.049 120.596-164.901 137.67-265.614 2.377-14.264 14.696-24.206 28.744-24.206 1.729 0 3.242 0.216 4.971 0.432 15.777 2.377 26.583 17.506 23.773 33.283z" />
<glyph unicode="&#xe911;" glyph-name="right-arrow" d="M614.4 857.6l-71.68-71.68 286.72-286.72h-829.44v-102.4h829.44l-286.72-286.72 71.68-71.68 409.6 409.6z" />
<glyph unicode="&#xe912;" glyph-name="pin1" d="M512 960c-208.583 0-378.27-169.688-378.27-378.27 0-68.667 30.796-142.519 32.086-145.634 9.946-23.609 29.572-60.278 43.724-81.773l259.36-392.978c10.614-16.11 26.323-25.344 43.101-25.344s32.487 9.234 43.101 25.322l259.382 393.001c14.174 21.495 33.777 58.165 43.724 81.773 1.291 3.093 32.064 76.945 32.064 145.634 0 208.583-169.688 378.27-378.27 378.27zM817.175 453.363c-8.878-21.161-27.146-55.272-39.852-74.542l-259.382-393.001c-5.118-7.766-6.742-7.766-11.86 0l-259.382 393.001c-12.705 19.27-30.974 53.403-39.852 74.564-0.378 0.912-28.615 68.89-28.615 128.345 0 184.040 149.728 333.768 333.768 333.768s333.768-149.728 333.768-333.768c0-59.544-28.304-127.7-28.593-128.367zM512 781.968c-110.433 0-200.261-89.85-200.261-200.261s89.828-200.261 200.261-200.261c110.433 0 200.261 89.85 200.261 200.261s-89.828 200.261-200.261 200.261zM512 425.949c-85.867 0-155.758 69.869-155.758 155.758s69.891 155.758 155.758 155.758 155.758-69.869 155.758-155.758-69.891-155.758-155.758-155.758z" />
<glyph unicode="&#xe913;" glyph-name="price-tag" d="M444.002-31.5c-0.023 0-0.053 0-0.082 0-30.041 0.023-58.289 11.742-79.523 33.012l-299.086 299.514c-43.746 43.828-43.746 115.143 0 158.965l403.172 403.945c41.549 41.631 96.832 64.564 155.66 64.564h255.791c62.027 0 112.5-50.461 112.5-112.5v-255.006c0-58.787-22.91-114.047-64.5-155.59l-404.426-404.004c-21.246-21.217-49.482-32.9-79.506-32.9zM624.143 853.5c-38.766 0-75.193-15.111-102.574-42.545l-403.178-403.945c-14.584-14.613-14.584-38.379 0-52.992l299.086-299.514c7.072-7.084 16.482-10.998 26.502-11.004h0.029c10.008 0 19.418 3.896 26.496 10.963l404.426 403.998c27.41 27.375 42.504 63.797 42.504 102.533v255.006c0 20.678-16.822 37.5-37.5 37.5zM720.553 547.875c-62.033 0-112.5 50.461-112.5 112.5s50.467 112.5 112.5 112.5c62.033 0 112.5-50.461 112.5-112.5s-50.467-112.5-112.5-112.5zM720.553 697.875c-20.678 0-37.5-16.822-37.5-37.5s16.822-37.5 37.5-37.5c20.684 0 37.5 16.822 37.5 37.5s-16.816 37.5-37.5 37.5z" />
<glyph unicode="&#xe914;" glyph-name="user" d="M504.702 466.735c67.765 0 126.437 24.305 174.39 72.258 47.937 47.945 72.25 106.609 72.25 174.382 0 67.75-24.305 126.422-72.258 174.382-47.953 47.937-106.625 72.242-174.382 72.242-67.773 0-126.437-24.305-174.382-72.25s-72.258-106.617-72.258-174.375c0-67.773 24.312-126.445 72.258-174.39 47.961-47.937 106.633-72.25 174.382-72.25zM372.757 845.321c36.789 36.789 79.945 54.672 131.945 54.672 51.992 0 95.156-17.883 131.953-54.672 36.789-36.797 54.68-79.961 54.68-131.945 0-52-17.891-95.156-54.68-131.953-36.797-36.797-79.961-54.68-131.953-54.68-51.984 0-95.14 17.891-131.945 54.68-36.797 36.789-54.687 79.953-54.687 131.953 0 51.984 17.891 95.148 54.687 131.945zM936.256 172.595c-1.383 19.953-4.18 41.719-8.297 64.703-4.156 23.156-9.508 45.047-15.914 65.055-6.625 20.68-15.617 41.101-26.75 60.672-11.539 20.312-25.102 38-40.32 52.555-15.914 15.227-35.398 27.469-57.93 36.398-22.453 8.883-47.336 13.383-73.953 13.383-10.453 0-20.562-4.289-40.086-17-12.016-7.836-26.070-16.898-41.758-26.922-13.414-8.547-31.586-16.555-54.031-23.805-21.898-7.086-44.133-10.68-66.086-10.68-21.937 0-44.172 3.594-66.086 10.68-22.422 7.242-40.601 15.25-53.992 23.797-15.539 9.93-29.602 18.992-41.797 26.937-19.508 12.711-29.617 17-40.070 17-26.625 0-51.5-4.508-73.945-13.398-22.516-8.914-42.008-21.156-57.937-36.398-15.219-14.562-28.781-32.242-40.312-52.547-11.117-19.57-20.117-39.984-26.742-60.68-6.398-20.008-11.75-41.891-15.906-65.047-4.125-22.953-6.914-44.726-8.297-64.726-1.359-19.555-2.047-39.906-2.047-60.469 0-53.453 16.992-96.726 50.5-128.64 33.094-31.492 76.875-47.461 130.133-47.461h493.062c53.242 0 97.023 15.969 130.125 47.461 33.516 31.891 50.508 75.18 50.508 128.648-0.008 20.633-0.703 40.984-2.070 60.484zM846.444 26.939c-21.867-20.812-50.898-30.93-88.758-30.93h-493.054c-37.867 0-66.898 10.117-88.758 30.922-21.445 20.414-31.867 48.281-31.867 85.172 0 19.187 0.633 38.133 1.898 56.32 1.234 17.844 3.758 37.445 7.5 58.273 3.695 20.57 8.398 39.875 13.992 57.351 5.367 16.758 12.687 33.351 21.766 49.336 8.664 15.234 18.633 28.305 29.633 38.836 10.289 9.852 23.258 17.914 38.539 23.961 14.133 5.594 30.016 8.656 47.258 9.117 2.102-1.117 5.844-3.25 11.906-7.203 12.336-8.039 26.555-17.211 42.273-27.25 17.719-11.297 40.547-21.5 67.82-30.305 27.883-9.016 56.32-13.594 84.547-13.594s56.672 4.578 84.539 13.586c27.297 8.82 50.117 19.016 67.859 30.328 16.086 10.281 29.906 19.187 42.242 27.234 6.062 3.945 9.805 6.086 11.906 7.203 17.25-0.461 33.133-3.523 47.273-9.117 15.273-6.047 28.242-14.117 38.531-23.961 11-10.523 20.969-23.594 29.633-38.844 9.086-15.977 16.414-32.578 21.773-49.32 5.602-17.5 10.312-36.797 14-57.351 3.734-20.867 6.266-40.476 7.5-58.289v-0.016c1.273-18.117 1.914-37.055 1.922-56.297-0.008-36.898-10.43-64.758-31.875-85.164z" />
<glyph unicode="&#xe915;" glyph-name="straight-quotes" d="M0 832v-768l384 384v384zM640 832v-768l384 384v384z" />
<glyph unicode="&#xe916;" glyph-name="calendar" d="M341.333 714.667c-17.493 0-32 14.507-32 32v128c0 17.493 14.507 32 32 32s32-14.507 32-32v-128c0-17.493-14.507-32-32-32zM682.667 714.667c-17.493 0-32 14.507-32 32v128c0 17.493 14.507 32 32 32s32-14.507 32-32v-128c0-17.493-14.507-32-32-32zM362.667 341.329c-5.547 0-11.093 1.28-16.213 3.413-5.547 2.133-9.813 5.12-14.080 8.96-7.68 8.107-12.373 18.773-12.373 30.293 0 5.547 1.28 11.093 3.413 16.213s5.12 9.813 8.96 14.080c4.267 3.84 8.533 6.827 14.080 8.96 15.36 6.4 34.56 2.987 46.507-8.96 7.68-8.107 12.373-19.2 12.373-30.293 0-2.56-0.427-5.547-0.853-8.533-0.427-2.56-1.28-5.12-2.56-7.68-0.853-2.56-2.133-5.12-3.84-7.68-1.28-2.133-3.413-4.267-5.12-6.4-8.107-7.68-19.2-12.373-30.293-12.373zM512 341.338c-5.547 0-11.093 1.28-16.213 3.413-5.547 2.133-9.813 5.12-14.080 8.96-7.68 8.107-12.373 18.773-12.373 30.293 0 5.547 1.28 11.093 3.413 16.213s5.12 9.813 8.96 14.080c4.267 3.84 8.533 6.827 14.080 8.96 15.36 6.827 34.56 2.987 46.507-8.96 7.68-8.107 12.373-19.2 12.373-30.293 0-2.56-0.427-5.547-0.853-8.533-0.427-2.56-1.28-5.12-2.56-7.68-0.853-2.56-2.133-5.12-3.84-7.68-1.28-2.133-3.413-4.267-5.12-6.4-8.107-7.68-19.2-12.373-30.293-12.373zM661.333 341.338c-5.547 0-11.093 1.28-16.213 3.413-5.547 2.133-9.813 5.12-14.080 8.96-1.707 2.133-3.413 4.267-5.12 6.4-1.707 2.56-2.987 5.12-3.84 7.68-1.28 2.56-2.133 5.12-2.56 7.68-0.427 2.987-0.853 5.973-0.853 8.533 0 11.093 4.693 22.187 12.373 30.293 4.267 3.84 8.533 6.827 14.080 8.96 15.787 6.827 34.56 2.987 46.507-8.96 7.68-8.107 12.373-19.2 12.373-30.293 0-2.56-0.427-5.547-0.853-8.533-0.427-2.56-1.28-5.12-2.56-7.68-0.853-2.56-2.133-5.12-3.84-7.68-1.28-2.133-3.413-4.267-5.12-6.4-8.107-7.68-19.2-12.373-30.293-12.373zM362.667 192.004c-5.547 0-11.093 1.276-16.213 3.409s-9.813 5.124-14.080 8.964c-7.68 8.107-12.373 19.2-12.373 30.293 0 5.547 1.28 11.093 3.413 16.213 2.133 5.547 5.12 10.236 8.96 14.076 15.787 15.787 44.8 15.787 60.587 0 7.68-8.107 12.373-19.196 12.373-30.289s-4.693-22.187-12.373-30.293c-8.107-7.68-19.2-12.373-30.293-12.373zM512 192.004c-11.093 0-22.187 4.693-30.293 12.373-7.68 8.107-12.373 19.2-12.373 30.293 0 5.547 1.28 11.093 3.413 16.213 2.133 5.547 5.12 10.236 8.96 14.076 15.787 15.787 44.8 15.787 60.587 0 3.84-3.84 6.827-8.529 8.96-14.076 2.133-5.12 3.413-10.667 3.413-16.213 0-11.093-4.693-22.187-12.373-30.293-8.107-7.68-19.2-12.373-30.293-12.373zM661.333 192.004c-11.093 0-22.187 4.693-30.293 12.373-3.84 3.84-6.827 8.533-8.96 14.080-2.133 5.12-3.413 10.667-3.413 16.213s1.28 11.093 3.413 16.213c2.133 5.547 5.12 10.24 8.96 14.080 9.813 9.813 24.747 14.507 38.4 11.52 2.987-0.427 5.547-1.28 8.107-2.56 2.56-0.853 5.12-2.133 7.68-3.84 2.133-1.28 4.267-3.413 6.4-5.12 7.68-8.107 12.373-19.2 12.373-30.293s-4.693-22.187-12.373-30.293c-8.107-7.68-19.2-12.373-30.293-12.373zM874.667 540.167h-725.333c-17.493 0-32 14.507-32 32s14.507 32 32 32h725.333c17.493 0 32-14.507 32-32s-14.507-32-32-32zM682.667-10.667h-341.333c-155.733 0-245.333 89.6-245.333 245.333v362.667c0 155.733 89.6 245.333 245.333 245.333h341.333c155.733 0 245.333-89.6 245.333-245.333v-362.667c0-155.733-89.6-245.333-245.333-245.333zM341.333 778.667c-122.027 0-181.333-59.307-181.333-181.333v-362.667c0-122.027 59.307-181.333 181.333-181.333h341.333c122.027 0 181.333 59.307 181.333 181.333v362.667c0 122.027-59.307 181.333-181.333 181.333z" />
<glyph unicode="&#xe917;" glyph-name="fast-forward-double-right-arrows-symbol" d="M998.802 508.796l-425.948 425.95c-33.595 33.595-88.081 33.595-121.676 0s-33.595-88.081 0-121.676l365.071-365.069-365.071-365.067c-33.595-33.595-33.595-88.081 0-121.676s88.081-33.595 121.676 0l425.948 425.948c33.595 33.511 33.595 87.996 0 121.591zM486.648 534.589l-338.167 356.414c-33.98 35.769-89.018 35.769-122.998 0s-33.98-93.793 0-129.605l276.69-291.611-276.69-291.611c-33.98-35.77-33.98-93.835 0-129.605s89.018-35.77 122.998 0l338.167 356.414c33.98 35.769 33.98 93.793 0 129.605z" />
<glyph unicode="&#xe918;" glyph-name="right" d="M512 149.333c-0.074 0-0.161-0.001-0.248-0.001-23.564 0-42.667 19.103-42.667 42.667 0 11.844 4.826 22.561 12.619 30.291l0.003 0.003 226.133 225.707-226.133 225.707c-6.377 7.412-10.259 17.129-10.259 27.753 0 23.564 19.103 42.667 42.667 42.667 10.624 0 20.341-3.883 27.809-10.307l-0.056 0.047 256-256c7.668-7.712 12.407-18.343 12.407-30.080s-4.74-22.368-12.409-30.082l-255.998-255.998c-7.667-7.606-18.211-12.323-29.857-12.373h-0.010zM256 149.333c-0.074 0-0.161-0.001-0.248-0.001-23.564 0-42.667 19.103-42.667 42.667 0 11.844 4.826 22.561 12.619 30.291l0.003 0.003 226.133 225.707-226.133 225.707c-7.753 7.753-12.548 18.463-12.548 30.293 0 23.661 19.181 42.841 42.841 42.841 11.83 0 22.541-4.795 30.293-12.548l256-256c7.668-7.712 12.407-18.343 12.407-30.080s-4.74-22.368-12.409-30.082l-255.998-255.998c-7.709-7.861-18.426-12.749-30.284-12.8h-0.010z" />
<glyph unicode="&#xe919;" glyph-name="travel-and-tourism" d="M512 896c16.33 0 32.458-0.861 48.343-2.539l-1.98 0.17 3.273 31.832c-14.871 1.616-32.12 2.537-49.583 2.537-29.252 0-57.901-2.586-85.73-7.541l2.936 0.433 5.48-31.527c23.209 4.221 49.92 6.635 77.195 6.635 0.022 0 0.045 0 0.067 0h-0.003zM249.39 811.002l-18.779 25.91c-120.921-88.124-198.61-229.267-198.61-388.556 0-0.125 0-0.25 0-0.375v0.020c-0.001-0.4-0.002-0.874-0.002-1.348 0-77.071 18.347-149.856 50.912-214.227l-1.246 2.715 28.672 14.207c-29.22 57.535-46.338 125.454-46.338 197.372 0 0.45 0.001 0.9 0.002 1.35v-0.070c0 0.107 0 0.234 0 0.36 0 148.671 72.519 280.404 184.114 361.755l1.276 0.886zM527.459 0.262l1.082-31.98c47.844 1.639 93.158 10.036 135.803 24.266l-3.382-0.978-9.924 30.422c-36.642-12.365-78.931-20.2-122.825-21.708l-0.754-0.021zM224 464h32v-368h-32zM320 464h32v-368h-32zM416 464h32v-368h-32zM982.936 432.559l-288.374 138.715c-6.076 2.981-13.224 4.725-20.779 4.725-18.946 0-35.332-10.964-43.158-26.893l-0.125-0.283-86.499-179.827v159.005c-0.052 44.162-35.838 79.948-79.995 80h-64.005v256c0 35.346-28.654 64-64 64s-64-28.654-64-64v0-256h-64c-44.162-0.052-79.948-35.838-80-79.995v-416.005c0.042-34.389 21.739-63.699 52.185-75.030l0.554-0.181c-2.994-6.084-4.745-13.242-4.745-20.81 0-26.511 21.492-48.003 48.003-48.003s48.003 21.492 48.003 48.003c0 5.743-1.009 11.251-2.858 16.355l0.106-0.334h133.505c-1.741-4.766-2.748-10.269-2.748-16.007 0-26.508 21.489-47.998 47.998-47.998s47.998 21.489 47.998 47.998c0 7.562-1.749 14.716-4.864 21.079l0.125-0.283c25.417 9.465 44.443 30.717 50.624 56.928l0.108 0.544 225.94-108.68c2.029-1.001 4.417-1.586 6.942-1.586 6.314 0 11.772 3.66 14.371 8.974l0.042 0.094 201.131 418.141c0.998 2.027 1.581 4.413 1.581 6.935 0 6.314-3.658 11.774-8.97 14.377l-0.094 0.042zM673.782 544.014c0.001 0 0.002 0 0.003 0 2.512 0 4.888-0.582 7-1.62l-0.094 0.042 273.954-131.777-13.871-28.838-273.955 131.775c-5.404 2.651-9.058 8.113-9.058 14.428 0 2.512 0.578 4.89 1.609 7.006l-0.042-0.095 0.008 0.016h-0.001c2.651 5.406 8.115 9.062 14.432 9.062 0.005 0 0.010 0 0.014 0h-0.001zM304 864c0 17.673 14.327 32 32 32s32-14.327 32-32v0-256h-64zM240 16c0-8.837-7.163-16-16-16s-16 7.163-16 16c0 8.837 7.163 16 16 16v0c8.832-0.010 15.99-7.168 16-15.999v-0.001zM448 0c-8.837 0-16 7.163-16 16s7.163 16 16 16c8.837 0 16-7.163 16-16v0c-0.010-8.832-7.168-15.99-15.999-16h-0.001zM464 64h-256c-26.497 0.031-47.969 21.503-48 47.997v416.003c0.031 26.497 21.503 47.969 47.997 48h64.003v-80h32v80h64v-80h32v80h64c26.497-0.031 47.969-21.503 48-47.997v-225.534l-54.89-114.113c-2.993-6.083-4.744-13.24-4.744-20.807 0-18.943 10.973-35.323 26.91-43.13l0.283-0.125 32.318-15.545c-1.78-25.057-22.528-44.714-47.874-44.748h-0.003zM767.386 21.354l-273.955 131.775c-5.406 2.645-9.064 8.105-9.064 14.419 0 2.522 0.584 4.908 1.623 7.031l-0.042-0.094 153.775 319.691c3.747-3.777 8.117-6.929 12.944-9.291l0.282-0.125 273.955-131.775zM768.846 393.502c-14.191 6.983-30.89 11.067-48.542 11.067-61.853 0-111.995-50.142-111.995-111.995s50.142-111.995 111.995-111.995c44.197 0 82.414 25.601 100.632 62.783l0.292 0.66c6.958 14.179 11.027 30.86 11.027 48.491 0 44.206-25.582 82.438-62.75 100.697l-0.659 0.293zM797.875 273.009l-28.686 13.798c5.895 15.763 9.307 33.977 9.307 52.989 0 0.775-0.006 1.549-0.017 2.321l0.001-0.117-0.085 5.545c13.546-14.341 21.874-33.737 21.874-55.079 0-6.91-0.873-13.616-2.515-20.014l0.121 0.557zM698.407 241.565l-4.215-3.264-0.082 5.33c-0.007 0.503-0.012 1.097-0.012 1.691 0 13.969 2.32 27.395 6.596 39.916l-0.258-0.869 25.848-12.434c-7.718-11.802-16.962-21.839-27.607-30.167l-0.271-0.204zM714.307 313.205c7.718 11.803 16.962 21.841 27.608 30.169l0.271 0.204 4.215 3.264 0.082-5.33c0.007-0.503 0.012-1.096 0.012-1.691 0-13.97-2.32-27.397-6.597-39.919l0.258 0.869zM720.424 372.566c2.177 0 4.36-0.119 6.543-0.3l-4.371-3.384c-14.812-11.567-27.228-25.381-36.938-41.048l-0.384-0.664-28.653 13.783c14.805 19.287 37.864 31.601 63.8 31.613h0.002zM642.708 312.138l28.697-13.804c-5.895-15.762-9.306-33.976-9.306-52.986 0-0.775 0.006-1.549 0.017-2.322l-0.001 0.117 0.086-5.598c-13.566 14.328-21.907 33.724-21.907 55.067 0 6.935 0.881 13.664 2.536 20.082l-0.122-0.556zM713.614 212.866l4.383 3.394c14.812 11.566 27.227 25.38 36.937 41.046l0.384 0.665 28.686-13.799c-14.817-19.275-37.882-31.575-63.82-31.575-2.313 0-4.603 0.098-6.866 0.289l0.295-0.020zM564.553 154.485l13.855 28.83 144.16-69.28-13.855-28.83zM723.313 707.314c-9.044 9.023-21.527 14.602-35.313 14.602s-26.269-5.579-35.314-14.603l0.001 0.001c-3.249-3.242-7.734-5.246-12.687-5.246s-9.437 2.005-12.687 5.247v0l-4 4c-20.313 20.266-48.35 32.798-79.313 32.798s-59.001-12.532-79.316-32.8l0.002 0.002c-8.319-8.363-19.836-13.539-32.561-13.539-0.044 0-0.088 0-0.132 0h0.007v-32c0.063 0 0.138 0 0.213 0 21.534 0 41.022 8.758 55.097 22.907l0.003 0.003c14.517 14.486 34.556 23.443 56.687 23.443s42.169-8.958 56.688-23.445l3.999-3.999c9.044-9.023 21.527-14.602 35.313-14.602s26.269 5.579 35.314 14.603l-0.001-0.001c3.248 3.243 7.733 5.249 12.687 5.249s9.438-2.005 12.687-5.249v0l29.49-29.49c55.428-55.727 131.055-91.314 214.972-94.853l0.655-0.022c6.398-23.683 11.071-51.472 13.068-79.999l0.079-1.409 31.926 2.176c-4.602 67.139-22.453 129.134-50.947 184.776l1.248-2.683-28.596-14.363c7.901-15.233 15.818-33.677 22.481-52.711l0.954-3.129c-72.041 5.878-135.82 37.192-183.2 84.832l-0.013 0.013zM583.657 850.348l266.5-162.861c7.128-4.445 15.782-7.080 25.052-7.080 13.255 0 25.251 5.388 33.918 14.094l62.187 62.186c2.896 2.896 4.687 6.896 4.687 11.314s-1.791 8.419-4.687 11.314l-32 32c-2.896 2.895-6.895 4.685-11.313 4.685-3.308 0-6.381-1.004-8.932-2.723l0.057 0.036-39.125-26.082-73.052 48.701 37.852 50.469c1.998 2.641 3.2 5.98 3.2 9.6 0 4.418-1.791 8.418-4.686 11.314l-16 16c-2.895 2.895-6.895 4.685-11.313 4.685-2.608 0-5.071-0.624-7.247-1.731l0.091 0.042-88.145-44.072-29.62 17.773c-11.749 7.179-25.967 11.43-41.177 11.43-22.091 0-42.088-8.967-56.549-23.46l-12.667-12.667c-2.895-2.895-4.686-6.896-4.686-11.314 0-5.751 3.034-10.793 7.589-13.613l0.068-0.039zM674.616 872.57l37.151-22.291c2.35-1.432 5.191-2.279 8.231-2.279 2.609 0 5.071 0.624 7.247 1.731l-0.091-0.042 80.179 40.090-36.134-48.18c-1.998-2.641-3.2-5.98-3.2-9.6 0-5.529 2.804-10.402 7.068-13.276l0.057-0.036 96-64c2.494-1.683 5.567-2.687 8.875-2.687s6.381 1.004 8.932 2.723l-0.057-0.036 37.086 24.725 11.411-11.412-50.871-50.871c-2.889-2.902-6.888-4.698-11.306-4.698-3.090 0-5.975 0.879-8.418 2.4l0.068-0.039-249.108 152.232c8.47 7.695 19.772 12.406 32.174 12.406 9.126 0 17.657-2.551 24.917-6.979l-0.211 0.12z" />
<glyph unicode="&#xe91a;" glyph-name="tourist" d="M211.994 19.265c7.637-3.166 11.262-11.923 8.097-19.561s-11.923-11.262-19.561-8.097c-7.637 3.166-11.262 11.923-8.097 19.561s11.923 11.262 19.561 8.097zM943.348 496.892c21.766 0 39.474 17.708 39.474 39.474v15.028c0 18.878-12.872 34.934-31.304 39.040l-56.096 12.488c-0.678 0.078-1.064 0.324-3.402 0.36h-113.846v78.418c0 35.31-22.194 65.52-53.36 77.464 11.338 10.584 20.052 24.15 24.926 39.812 2.462 7.91-1.956 16.318-9.866 18.78-7.906 2.462-16.318-1.958-18.78-9.866-8.046-25.856-31.67-43.226-58.784-43.226-31.086-0.642-62.156 27.24-61.552 61.552v32.56h175.008c8.284 0 15 6.714 15 15s-6.716 15-15 15h-21.904v4.152c0.002 36.984-30.094 67.072-67.088 67.072h-48.924c-37.756 0.176-69.114-32.714-67.090-71.222h-24.286c-8.284 0-15-6.714-15-15s6.716-15 15-15h24.286v-32.562c-0.026-24.318 10.596-50.224 29.768-67.554-21.588-8.69-38.71-26.196-46.866-48.050l-150.568-191.91c-0.024-0.030-0.042-0.062-0.064-0.090l-31.532-40.186c-6.508-8.294-9.398-18.628-8.136-29.098 1.016-9.278 7.524-21.57 17.412-28.358l-50.81-113.008-102.81 46.108c-32.814 14.726-71.498-0.004-86.226-32.828l-93.996-209.578c-7.138-15.894-7.652-33.618-1.45-49.906 6.204-16.29 18.378-29.184 34.272-36.302l56.874-25.526c2.952-35.744 32.964-63.93 69.454-63.93 38.44 0 69.714 31.274 69.714 69.714s-31.274 69.712-69.714 69.712c-29.59 0-54.916-18.54-65.018-44.606l-49.038 22.008c-8.584 3.846-15.158 10.806-18.506 19.604-3.35 8.794-3.072 18.364 0.784 26.948l94 209.578c7.954 17.734 28.848 25.698 46.576 17.734l22.614-10.142-62.356-136.396c-3.444-7.534-0.13-16.434 7.406-19.878 2.022-0.924 4.14-1.362 6.228-1.362 5.69 0 11.13 3.254 13.65 8.768l62.446 136.592 52.808-23.684-70.156-156.43c-3.39-7.558-0.010-16.436 7.548-19.826 7.56-3.388 16.434-0.010 19.824 7.548l132.018 294.048c8.846-2.15 22.914 0.188 33.14 8.314l44.454 36.424c0.716 0.714 0.858 0.6 2.358 2.426l61.598 78.504v-78.404c0-11.586 1.25-23.172 3.696-34.454l18.45-167.93c1.278-11.624 0.27-23.21-2.99-34.44l-67.368-238.524c-2.544-10.126-0.322-20.658 6.1-28.892 6.422-8.236 16.094-12.958 26.538-12.958h112.542c10.994 0 21.060 5.55 26.926 14.85 5.866 9.296 6.542 20.772 1.808 30.696l-20.288 42.528 61.006 209.564 9.326-8.152c7.24-6.326 12.532-14.544 15.308-23.77l71.794-234.672c7.418-18.968 25.46-32.38 50.032-25.39l95.632 31.248c10.678 3.486 18.408 12.136 20.68 23.138s-1.402 22.006-9.826 29.44l-38.36 33.844-58.052 192.056c-4.69 15.516-10.58 30.788-17.504 45.384l-75.734 159.81v40.32h165.172zM206.082 45.428c21.898 0 39.714-17.814 39.714-39.712s-17.816-39.716-39.714-39.716-39.714 17.816-39.714 39.714 17.816 39.714 39.714 39.714zM952.824 551.394v-15.028c0-5.224-4.25-9.474-9.474-9.474h-36.186v42.682l37.834-8.422c4.608-1.028 7.826-5.040 7.826-9.758zM877.164 526.892h-125.672c-28.62 0-54.682 16.874-66.39 42.97l-35.238 78.788c-5.222 11.676 0.030 25.424 11.704 30.644 8.29 4.584 25.374 0.632 30.644-11.704l35.23-78.768c4.238-9.442 13.678-15.542 24.052-15.542h125.672v-46.388zM600.76 892.928c0 20.442 16.638 37.070 37.090 37.070h48.924c20.816 0.088 38.958-19.026 37.090-41.222h-123.104zM631.394 734.64h63.82c29.202 0 52.96-23.75 52.96-52.942v-65.76l-28.582 63.904c-5.8 12.97-16.306 22.904-29.58 27.974-13.274 5.068-27.728 4.666-40.698-1.136-26.774-11.974-38.814-43.5-26.84-70.278l35.246-78.804c16.092-35.866 51.35-59.38 90.454-60.644v-28.754h-169.72v213.5c0.002 29.19 23.75 52.94 52.94 52.94zM421.034 437.454c-3.652-2.99-8.792-3.046-12.506-0.132l-11.824 9.278c-1.992 1.562-3.254 3.806-3.558 6.318-0.302 2.514 0.39 4.992 1.954 6.984l22.336 28.468 33.58-26.35zM472.454 483.34l-36.5 28.64 112.5 143.39v-75.168zM596.422 208.008c4.364 15.024 5.71 30.528 4.002 46.084l-20.228 184.102h162.986l-116.564-400.418h-79.642zM646.98-33.144c-0.542-0.856-1.304-0.856-1.554-0.856h-112.542c-1.474 0-2.38 0.766-2.88 1.406-0.5 0.642-1.022 1.708-0.662 3.136l9.354 37.232h89.714l18.676-39.148c0.106-0.224 0.434-0.914-0.106-1.77zM948.27 2.104c-0.108-0.524-0.4-0.62-0.616-0.69l-95.634-31.248c-2.456-0.802-5.078-0.6-7.38 0.568-2.304 1.17-4.016 3.168-4.818 5.624l-9.97 30.516 82.982 27.114 35.144-31.006c0.168-0.148 0.402-0.354 0.292-0.878zM842.696 242.698l55.036-182.078-76.86-25.114-52.632 174.852c-4.402 14.63-12.802 27.672-24.292 37.712l-19.822 17.328 42.41 145.684 60.268-127.172c6.286-13.256 11.634-27.122 15.892-41.212z" />
<glyph unicode="&#xe91b;" glyph-name="trophy" d="M1023.964 764.598c-1.020 86.91-45.496 134.776-125.238 134.776-30.864 0-60.604-7.184-80.046-13.178 1.936 35.524 1.966 57.452 1.966 58.542l0.002 15.208h-617.282v-15.206c0-0.52 0.052-22.794 2.010-58.562-19.44 5.998-49.208 13.196-80.102 13.196-79.74 0-124.218-47.864-125.238-134.776-1.004-85.5 18.496-161.608 57.954-226.214 38.74-63.43 88.256-101.652 122.974-122.542 55.606-33.464 111.18-40.488 148.012-40.488 9.080 0 17.828 0.428 26.010 1.272 0.542 0.056 1.044 0.12 1.574 0.178 17.808-19.178 37.006-34.54 57.52-45.956 15.122-8.414 25.64-23.088 29.244-39.954-20.39-6.346-35.236-25.396-35.236-47.846 0-22.954 15.526-42.34 36.62-48.24v-63.82h-82.284v-66.602h-81.2v-128.334h461.562v128.334h-81.2v66.602h-82.284v63.82c21.096 5.902 36.622 25.286 36.622 48.24 0 22.452-14.846 41.5-35.236 47.846 3.604 16.866 14.12 31.538 29.244 39.954 20.464 11.386 39.794 26.832 57.558 45.948 6.294-0.698 15.732-1.44 27.532-1.44 0.004 0 0.002 0 0.008 0 36.828 0 92.4 7.028 148.002 40.488 34.716 20.892 84.234 59.112 122.974 122.542 39.464 64.604 58.962 140.714 57.958 226.212zM789.984 929.534c-0.136-5.562-0.352-12.554-0.684-20.738h-554.526c-0.344 8.182-0.574 15.184-0.722 20.738h555.932zM810.668 789.908c20.604 6.858 47.308 13.774 71.23 13.774 20.058 0 34.5-4.9 42.926-14.564 9.684-11.108 12.806-29.768 9.274-55.468-14.706-107.052-61.124-190.616-130.708-235.294-24.238-15.564-50.342-21.994-72.218-24.278 46.274 97.262 68.67 219.294 79.496 315.83zM228.99 683.982c14.958-80.23 35.61-149.126 61.386-204.772 0.798-1.728 1.61-3.43 2.418-5.132-21.868 2.29-47.956 8.718-72.184 24.274-69.582 44.68-116.002 128.242-130.708 235.294-3.53 25.702-0.41 44.364 9.276 55.468 8.426 9.664 22.87 14.562 42.926 14.562 23.942 0 50.67-6.926 71.282-13.788 3.682-32.924 8.716-68.962 15.604-105.906zM328.976 405.766c-32.976 0-82.706 6.27-132.328 36.132-50.75 30.54-168.54 123.088-166.2 322.342 0.828 70.466 31.846 104.72 94.826 104.72 33.682 0 66.948-10.154 82.154-15.51 0.758-10.202 1.608-20.434 2.548-30.624-20.67 6.072-45.024 11.268-67.872 11.268-29.236 0-51.39-8.406-65.85-24.986-15.718-18.026-21.264-44.806-16.484-79.596 8.188-59.602 25.3-112.282 50.862-156.574 24.402-42.284 55.876-75.988 93.544-100.172 36.792-23.626 76.586-29.584 104.972-30.154 0.096-0.168 0.194-0.328 0.29-0.494 1.556-2.726 3.128-5.406 4.716-8.052 0.494-0.826 0.992-1.646 1.49-2.464 1.514-2.488 3.040-4.952 4.582-7.366 0.58-0.908 1.168-1.794 1.752-2.694 1.050-1.614 2.106-3.214 3.17-4.796 1.028-1.53 2.060-3.044 3.098-4.542 1.018-1.466 2.038-2.924 3.066-4.362 0.482-0.676 0.956-1.378 1.438-2.046-1.224-0.020-2.482-0.030-3.774-0.030zM712.376 33.97v-67.506h-400.736v67.506h400.736zM579.306 100.572h51.868v-36.188h-238.334v36.188h186.466zM475.122 130.986v61.964h73.77v-61.964h-73.77zM585.514 243.048c0-10.854-8.832-19.684-19.684-19.684h-107.644c-10.854 0-19.684 8.83-19.684 19.684s8.83 19.684 19.684 19.684h107.644c10.854 0 19.684-8.83 19.684-19.684zM661.582 416.896c-0.168-0.218-0.336-0.436-0.504-0.654-1.496-1.936-3.004-3.824-4.52-5.686-0.372-0.454-0.738-0.916-1.112-1.368-1.666-2.024-3.346-4.004-5.034-5.936-0.082-0.092-0.158-0.188-0.24-0.28-16.958-19.346-35.47-34.668-55.024-45.548-24.102-13.408-40.49-37.222-44.998-64.278h-76.284c-4.51 27.058-20.898 50.87-45 64.278-18.872 10.498-35.916 24.532-51.314 41.302l-3.72 4.244c-15.12 17.244-29.372 38.136-42.358 62.090l-3.978 7.342c-65.394 126.354-85.174 308.976-91.138 405.982h551.41c-0.254-4.22-0.532-8.578-0.84-13.104-0.014-0.21-0.030-0.426-0.044-0.636-0.336-4.904-0.696-9.822-1.078-14.744-0.010-0.144-0.022-0.288-0.032-0.434-1.216-15.6-2.656-31.258-4.298-46.73l-0.994-9.356c-11.050-99.056-34.388-225.25-83.602-320.306l-4.346-8.012c-9.67-17.832-20.042-33.964-30.952-48.166zM827.354 441.898c-49.626-29.864-99.346-36.132-132.32-36.132-0.002 0-0.006 0-0.008 0-1.294 0-2.552 0.010-3.778 0.030 0.020 0.028 0.040 0.058 0.060 0.086 1.974 2.724 3.918 5.488 5.832 8.29 0.234 0.342 0.464 0.692 0.698 1.034 1.618 2.384 3.212 4.8 4.788 7.24 0.406 0.626 0.812 1.254 1.214 1.884 1.744 2.738 3.47 5.494 5.162 8.298 0.266 0.438 0.524 0.888 0.788 1.33 1.386 2.316 2.756 4.654 4.108 7.014 0.316 0.552 0.642 1.080 0.96 1.636 28.386 0.57 68.18 6.528 104.972 30.154 37.668 24.188 69.142 57.892 93.544 100.172 25.56 44.292 42.672 96.972 50.862 156.574 4.776 34.792-0.768 61.572-16.484 79.596-14.458 16.582-36.614 24.988-65.85 24.988-22.846 0-47.204-5.192-67.872-11.266 0.958 10.39 1.78 20.356 2.484 29.828 0.020 0.264 0.042 0.53 0.062 0.792 15.21 5.358 48.474 15.51 82.154 15.51 62.98 0 93.998-34.254 94.828-104.716 2.332-199.254-115.454-291.8-166.204-322.342zM384.712 467.526l-25.4-16.734c8.672-13.166 17.992-25.128 27.702-35.552l22.256 20.732c-8.554 9.182-16.816 19.8-24.558 31.554zM319.432 636.156l-29.652-6.764c14.584-63.93 34.054-117.598 57.866-159.512l26.444 15.024c-22.344 39.33-40.734 90.218-54.658 151.252zM887.332 292.982l-0.022 30.414-25.674-0.016-0.018 25.674-30.414-0.020 0.018-25.676-25.674-0.018 0.020-30.414 25.674 0.018 0.018-25.672 30.414 0.020-0.018 25.674zM225.57 135.050l-0.032 30.414-21.544-0.022-0.022 21.546-30.414-0.032 0.022-21.544-21.548-0.022 0.034-30.414 21.544 0.022 0.022-21.548 30.414 0.032-0.022 21.546zM97.69 383.678h28.69v-30.414h-28.69v30.414zM282.078 293.694h28.69v-30.414h-28.69v30.414zM744.508 202.19h28.69v-30.414h-28.69v30.414z" />
<glyph unicode="&#xe91c;" glyph-name="quality" d="M186 743l29.8-61.6 67.6-9.2c13.4-1.8 18.2-18.4 9-27.2l-49.4-47.4 12.2-67.2c2.4-13.2-11.6-23.2-23.2-16.8l-60.2 32.4-60.2-32.4c-11.6-6.2-26.2 3.4-23 17.8l12 66.4-49.4 47.4c-9.6 9.2-4.4 25.6 9.2 27.4l67.4 9.2 29.8 61.6c5.6 11.8 22.8 11.6 28.4-0.4zM190.8 659.8l-19 39.6-19.2-39.6c-2.2-4.6-6.8-8.2-12.2-9l-43.4-5.8 31.8-30.4c3.6-3.6 5.6-8.8 4.6-14.2l-7.8-43.2 38.4 20.6c4.6 2.4 10.4 2.8 15.2 0l38.6-20.8-7.6 42.4c-1.2 5.2 0.2 11 4.4 15.2l31.8 30.4-43 5.8c-5.2 0.6-10.2 4-12.6 9zM526.4 888l29.8-61.6 67.8-9.2c13.4-1.8 18.2-18.4 9-27.4l-49.4-47.4 12.2-67.2c2.4-13.2-11.6-23.2-23.2-16.8l-60.6 32.4-60.2-32.4c-11.6-6.2-26.2 3.4-23 17.8l12 66.4-49.6 47.4c-9.6 9.2-4.4 25.6 9.2 27.4l67.4 9.2 29.8 61.4c6 12.2 23 12 28.8 0zM531.2 804.8l-19.2 39.6-19-39.6c-2.2-4.6-6.8-8.2-12.2-9l-43.6-5.8 31.8-30.4c3.8-3.6 5.6-8.8 4.6-14.2l-7.8-43.2 38.6 20.6c4.6 2.4 10.2 2.8 15.2 0l38.6-20.8-7.6 42.4c-1.2 5.2 0.2 11 4.4 15.2l31.8 30.4-43 6c-5.4 0.4-10.2 3.8-12.6 8.8zM866.6 743l29.8-61.6 67.6-9.2c13.4-1.8 18.4-18.4 9-27.2l-49.4-47.4 12.2-67.2c2.4-13.2-11.6-23.2-23.2-16.8l-60.2 32.4-60.2-32.4c-11.6-6.2-26.2 3.4-23.2 17.8l12 66.4-49.4 47.4c-9.6 9.2-4.4 25.6 9.2 27.4l67.4 9.2 29.8 61.6c5.8 11.8 23 11.6 28.6-0.4zM871.4 659.8l-19 39.6-19.2-39.6c-2.2-4.6-6.6-8.2-12.2-9l-43.4-5.8 31.6-30.4c3.6-3.6 5.6-8.8 4.6-14.2l-7.8-43.2 38.6 20.6c4.6 2.4 10.4 2.8 15.2 0l38.8-20.8-7.6 42.4c-1.2 5.2 0.2 11 4.4 15.2l31.6 30.4-43 5.8c-5.2 0.6-10.2 4-12.6 9zM437.8 334.6c-4.4 7.6-1.8 17.4 5.8 21.8s17.4 1.8 21.8-5.8l21-36.4 74.6 74.6c6.2 6.2 16.4 6.2 22.6 0s6.2-16.4 0-22.6l-89.4-89.4c-7.4-7.4-19.8-5.8-25 3.2zM512 503.6c87 0 157.6-70.6 157.6-157.6s-70.6-157.6-157.6-157.6-157.6 70.6-157.6 157.6 70.6 157.6 157.6 157.6zM600.8 434.8c-49 49-128.6 49-177.6 0s-49-128.6 0-177.6 128.6-49 177.6 0c49 49.2 49 128.6 0 177.6zM512 602.6c141.6 0 256.4-114.8 256.4-256.4 0-53.6-16.4-103.4-44.6-144.6l76.6-132.6c7.4-12.4-2.8-26.4-16-24.4l-78.4 12.4-42-51.6c-7.4-9.6-21.2-8-26.6 1.6l-53.6 92.8c-46.8-13.6-97-13.6-143.6 0l-53.6-92.8c-5.4-9.6-19.2-11.2-26.6-1.6l-42 51.6-78.4-12.4c-13.4-2.2-22.8 12.4-16.4 23.8l77 133.2c-69.6 101.8-56.6 238.8 30.6 326 46.2 46.2 110.4 75 181.2 75zM702.6 174.6c-24.4-27.2-54.4-49-88.4-63.8l39.2-67.8 33.6 41.2c3.8 4.8 9.6 6.6 15.2 5.6l54-8.6zM409.6 110.8c-33.8 14.8-63.8 36.6-88.2 63.6l-53.8-93.2 54 8.6c5.4 1 11.4-1 15.2-5.6l33.6-41.2zM670.8 504.8c-87.6 87.6-229.8 87.6-317.4 0s-87.6-229.8 0-317.4c87.8-87.6 229.8-87.6 317.4 0s87.6 229.8 0 317.4z" />
<glyph unicode="&#xe91d;" glyph-name="location" d="M742.458 428.98c-15.668-12.61-25.71-31.93-25.71-53.552 0-37.9 30.856-68.734 68.782-68.734s68.782 30.834 68.782 68.734c0 21.664-10.082 41.018-25.802 53.626 20.74 15.114 48.89 37.612 77.204 66.358 73.066 74.18 111.686 154.724 111.686 232.922 0 127.74-104.016 231.666-231.87 231.666s-231.87-103.926-231.87-231.666c0-78.636 38.626-159.32 111.704-233.332 28.26-28.624 56.36-50.988 77.094-66.022zM785.53 346.694c-15.87 0-28.782 12.89-28.782 28.734s12.912 28.734 28.782 28.734 28.782-12.89 28.782-28.734-12.912-28.734-28.782-28.734zM785.53 920c105.798 0 191.87-85.982 191.87-191.666 0-142.852-150.894-253.118-191.922-280.448-41.070 27.112-191.818 136.468-191.818 280.448 0 105.684 86.072 191.666 191.87 191.666zM785.53 609.602c65.52 0 118.824 53.262 118.824 118.73s-53.304 118.73-118.824 118.73-118.826-53.262-118.826-118.73 53.306-118.73 118.826-118.73zM785.53 807.062c43.464 0 78.824-35.318 78.824-78.73s-35.36-78.73-78.824-78.73-78.826 35.318-78.826 78.73c0.002 43.412 35.362 78.73 78.826 78.73zM433.592 420.546c0 89.218-72.644 161.802-161.938 161.802s-161.938-72.584-161.938-161.802c0-89.216 72.644-161.8 161.938-161.8s161.938 72.584 161.938 161.8zM149.716 420.546c0 67.162 54.702 121.802 121.938 121.802s121.938-54.64 121.938-121.802-54.702-121.8-121.938-121.8-121.938 54.638-121.938 121.8zM316.11 74.45c24.136 17.37 58.116 44.166 92.32 78.892 83.92 85.2 128.278 177.598 128.278 267.204 0 146.022-118.904 264.82-265.054 264.82s-265.054-118.798-265.054-264.82c0-90.11 44.364-182.67 128.296-267.676 34.144-34.58 68.064-61.216 92.2-78.494-19.284-13.876-31.864-36.502-31.864-62.008 0-42.11 34.282-76.368 76.422-76.368s76.422 34.258 76.422 76.368c0 25.552-12.624 48.212-31.966 62.082zM46.6 420.546c0 123.966 100.958 224.82 225.054 224.82s225.054-100.854 225.054-224.82c0-99.36-63.15-184.524-116.124-238.472-44.384-45.198-89.352-76.766-108.962-89.664-45.192 29.58-225.022 158.014-225.022 328.136zM271.654-24c-20.084 0-36.422 16.314-36.422 36.368 0 20.052 16.338 36.368 36.422 36.368s36.422-16.314 36.422-36.368-16.338-36.368-36.422-36.368zM883.5 118.556h-218.906c-15.36 0-27.858 12.476-27.858 27.812s12.498 27.81 27.858 27.81h72.548c37.708 0 68.388 30.658 68.388 68.342 0 11.046-8.954 20-20 20s-20-8.954-20-20c0-15.628-12.734-28.342-28.388-28.342h-72.548c-37.416 0-67.858-30.42-67.858-67.812 0-37.39 30.44-67.81 67.858-67.81h218.906c17.514 0 31.762-14.226 31.762-31.712s-14.248-31.712-31.762-31.712h-469.262c-11.046 0-20-8.954-20-20s8.954-20 20-20h469.262c39.57 0 71.762 32.17 71.762 71.712s-32.192 71.712-71.762 71.712z" />
<glyph unicode="&#xe91e;" glyph-name="clock" d="M512 960c-282.312 0-512-229.688-512-512s229.688-512 512-512 512 229.688 512 512-229.688 512-512 512zM512 0c-247.032 0-448 200.968-448 448s200.968 448 448 448 448-200.968 448-448-200.968-448-448-448zM544 767.999h-64v-333.249l201.375-201.375 45.25 45.25-182.625 182.625z" />
<glyph unicode="&#xe91f;" glyph-name="group" d="M885.616 487.003c29.987 21.072 49.843 56.123 49.843 95.633 0 64.633-52.274 116.907-116.907 116.907s-116.907-52.274-116.907-116.907c0-39.509 19.653-74.561 49.843-95.633-25.732-8.915-49.235-22.693-69.091-40.522-27.353 23.3-59.568 41.13-94.822 51.666 42.751 25.934 71.522 73.143 71.522 126.835 0 81.855-66.254 148.109-148.109 148.109s-148.109-66.457-148.109-148.109c0-53.692 28.568-100.901 71.522-126.835-34.849-10.536-66.659-28.163-93.809-51.058-19.856 17.425-42.954 31-68.28 39.712 29.987 21.072 49.843 56.123 49.843 95.633 0 64.633-52.274 116.907-116.907 116.907s-116.907-52.274-116.907-116.907c0-39.509 19.653-74.561 49.843-95.633-80.437-27.758-138.181-104.142-138.181-193.899v-13.372c0-0.405 0.405-0.81 0.81-0.81h247.794c-1.418-11.144-2.229-22.693-2.229-34.241v-13.778c0-59.568 48.222-107.789 107.789-107.789h314.048c59.568 0 107.789 48.222 107.789 107.789v13.778c0 11.549-0.81 23.098-2.229 34.241h249.415c0.405 0 0.81 0.405 0.81 0.81v13.372c-0.405 89.96-57.947 166.344-138.384 194.102zM734.063 582.838c0 46.601 37.888 84.489 84.489 84.489s84.489-37.888 84.489-84.489c0-45.993-37.078-83.476-82.868-84.489-0.608 0-1.013 0-1.621 0s-1.013 0-1.621 0c-45.993 0.81-82.868 38.294-82.868 84.489zM394.89 624.981c0 63.823 51.869 115.691 115.691 115.691s115.691-51.869 115.691-115.691c0-61.594-48.424-112.044-109.005-115.489-2.229 0-4.457 0-6.686 0s-4.457 0-6.686 0c-60.581 3.444-109.005 53.895-109.005 115.489zM120.149 582.838c0 46.601 37.888 84.489 84.489 84.489s84.489-37.888 84.489-84.489c0-45.993-37.078-83.476-82.868-84.489-0.608 0-1.013 0-1.621 0s-1.013 0-1.621 0c-45.79 0.81-82.868 38.294-82.868 84.489zM254.278 311.338h-221.455c9.118 86.313 82.058 153.985 170.599 154.593 0.405 0 0.81 0 1.216 0s0.81 0 1.216 0c42.143-0.203 80.639-15.804 110.423-41.13-29.176-31.607-50.856-70.509-61.999-113.463zM743.18 230.699c0-41.535-33.836-75.372-75.372-75.372h-314.048c-41.535 0-75.372 33.836-75.372 75.372v13.778c0 125.822 100.495 228.749 225.507 232.396 2.229-0.203 4.66-0.203 6.889-0.203s4.66 0 6.889 0.203c125.011-3.647 225.507-106.574 225.507-232.396v-13.778zM767.291 311.338c-11.144 42.751-32.418 81.045-61.391 112.652 29.987 25.934 68.888 41.535 111.436 41.941 0.405 0 0.81 0 1.216 0s0.81 0 1.216 0c88.541-0.608 161.482-68.28 170.599-154.593h-223.076z" />
<glyph unicode="&#xe920;" glyph-name="down-arrow" d="M512 256c-8.184 0-16.376 3.128-22.624 9.376l-320 320c-12.504 12.504-12.504 32.752 0 45.248s32.752 12.504 45.248 0l297.376-297.376 297.376 297.376c12.504 12.504 32.752 12.504 45.248 0s12.504-32.752 0-45.248l-320-320c-6.248-6.248-14.44-9.376-22.624-9.376z" />
<glyph unicode="&#xe921;" glyph-name="helmet" d="M976 61.744v2.256c0.001 0.222 0.001 0.485 0.001 0.747 0 125.977-81.25 232.977-194.206 271.456l-2.019 0.597c-12.667 28.040-40.387 47.201-72.583 47.201-0.104 0-0.209 0-0.313-0.001h-2.88v130.672c-0.044 33.909-8.149 65.914-22.501 94.217l0.549-1.193-23.472 46.928c-11.686 22.935-18.546 50.015-18.576 78.694v146.682c0 0.009 0 0.020 0 0.032 0 5.891-3.184 11.038-7.925 13.816l-0.076 0.041-112 64c-2.282 1.329-5.023 2.113-7.947 2.113-2.134 0-4.17-0.418-6.032-1.176l0.107 0.039c-45.521-19.396-98.476-30.671-154.064-30.671s-108.543 11.275-156.702 31.663l2.638-0.992c-1.775 0.739-3.838 1.168-6 1.168-2.946 0-5.705-0.796-8.076-2.184l0.075 0.041-112-64c-4.816-2.818-8-7.965-8-13.856 0-0.011 0-0.022 0-0.033v0.002-146.672c-0.030-28.689-6.89-55.769-19.040-79.711l0.464 1.007-23.472-46.928c-13.803-27.11-21.908-59.115-21.952-93.009v-402.687c0-8.837 7.163-16 16-16v0h385.872c-1.151-9.561-1.83-20.677-1.872-31.943v-2.425c-27.606-7.456-47.585-32.275-47.585-61.761 0-35.175 28.433-63.709 63.57-63.871h544.016c0.081 0 0.176-0.001 0.271-0.001 35.267 0 63.856 28.589 63.856 63.856 0 29.679-20.248 54.629-47.683 61.79l-0.444 0.098zM944 64h-512c-0.001 0.25-0.001 0.547-0.001 0.843 0 105.545 64.214 196.093 155.705 234.706l1.673 0.627c0.162-4.004 0.592-7.78 1.276-11.467l-0.076 0.491 28.8-154.096c4.34-22.412 23.805-39.104 47.168-39.104 0.005 0 0.011 0 0.016 0h42.879c23.377 0.005 42.848 16.72 47.12 38.85l0.048 0.302 28.896 154.096c0.607 3.186 1.037 6.951 1.195 10.786l0.005 0.158c93.128-39.327 157.297-129.894 157.297-235.449 0-0.261 0-0.522-0.001-0.783v0.040zM32 384h304v-64h-304zM32 480h304v-64h-304zM607.568 355.088c-4.333-5.248-8.080-11.226-10.997-17.66l-0.203-0.5c-15.912-5.325-29.296-11.050-42.126-17.696l1.63 0.768h-187.872v64h301.104c-0.032 0-0.070 0-0.108 0-24.658 0-46.701-11.196-61.323-28.782l-0.105-0.13zM672 416h-304v64h304zM32 288h304v-64h-304zM368 288h138.688c-22.562-18.296-41.879-39.389-57.769-62.981l-0.647-1.019h-80.272zM743.808 334.656c6.899-8.23 11.089-18.934 11.089-30.616 0-3.143-0.303-6.216-0.882-9.189l0.049 0.301-28.912-154.112c-1.444-7.469-7.927-13.034-15.711-13.040h-42.881c-0.001 0-0.003 0-0.004 0-7.79 0-14.279 5.567-15.708 12.939l-0.016 0.101-28.896 154.112c-0.523 2.66-0.823 5.719-0.823 8.848 0 26.506 21.485 47.995 47.99 48h37.793c0.022 0 0.048 0 0.075 0 14.788 0 28.008-6.717 36.774-17.266l0.063-0.078zM629.952 640.256l23.472-46.928c11.679-22.921 18.538-49.983 18.576-78.644v-2.684h-304v155.632l149.776 254.64 90.224-51.552v-137.392c0.044-33.909 8.149-65.914 22.501-94.217l-0.549 1.193zM476.176 914.656l-124.176-211.104-124.176 211.104c37.152-11.709 79.876-18.456 124.176-18.456s87.024 6.746 127.201 19.268l-3.025-0.812zM50.576 593.376l23.472 46.928c13.803 27.11 21.908 59.115 21.952 93.009v137.407l90.224 51.552 149.776-254.64v-155.632h-304v2.672c0.030 28.689 6.89 55.769 19.040 79.711l-0.464-1.007zM32 128v64h304v-64zM368 128v64h61.76c-9.293-18.361-17.067-39.714-22.232-62.065l-0.376-1.935zM960-32h-544c-17.673 0-32 14.327-32 32s14.327 32 32 32v0h544c17.673 0 32-14.327 32-32s-14.327-32-32-32v0z" />
<glyph unicode="&#xe922;" glyph-name="lowest-price" d="M533.468 238.27c2.39-19.682-2.882-37.642-15.248-51.94-14.628-16.914-39.002-28.23-66.724-31.348v-21.228c0-8.836-7.164-16-16-16s-16 7.164-16 16v21.458c-40.984 5.51-72.86 31.348-82.068 68.278-2.138 8.574 3.080 17.258 11.654 19.396 8.58 2.126 17.258-3.082 19.396-11.654 8.234-33.024 40.5-44.844 66.934-45.11 0.14 0.002 0.282-0.002 0.422-0.004 0.888 0.004 1.768 0.004 2.64 0.026 23.122 0.55 44.924 8.84 55.542 21.12 6.48 7.492 8.994 16.374 7.686 27.15-3.088 25.432-24.234 40.020-68.564 47.296-69.956 11.486-86.242 46.912-87.584 74.608-1.864 38.382 25.020 70.552 66.898 80.050 2.306 0.524 4.66 0.97 7.044 1.338v21.686c0 8.836 7.164 16 16 16s16-7.164 16-16v-21.548c30.030-4.348 59.706-21.672 74.502-56.916 3.42-8.146-0.41-17.526-8.558-20.946-8.148-3.422-17.526 0.41-20.946 8.558-11.494 27.372-36.086 38.484-59.816 38.524-0.656-0.050-1.332-0.054-1.994-0.024-5.16-0.124-10.258-0.77-15.154-1.88-21.188-4.804-43.352-19.752-42.014-47.292 0.418-8.626 1.692-34.876 60.806-44.582 21.712-3.564 87.788-14.41 95.146-75.016zM919.582 137.788l-149.694-176.306c-5.19-6.114-12.464-9.48-20.484-9.48-8.018 0-15.294 3.368-20.484 9.478l-59.894 70.542c-61.71-51.828-141.252-80.022-226.376-80.022-2.082 0-4.16 0.018-6.248 0.050-2.036-0.034-4.090-0.048-6.122-0.048-123.368-0.006-235.41 60.288-293.542 158.38-52.75 89.010-51.596 195.208 3.164 291.358 34.276 60.182 86.77 128.326 164.212 213.044-21.996 10.004-37.336 32.172-37.336 57.87 0 34.532 27.692 62.7 62.034 63.512l-50.582 50.58c-25.292 25.292-25.292 66.444 0 91.734 21.406 21.408 55.446 25.064 80.942 8.7 2.738-1.756 5.418-1.996 8.426-0.752 3.002 1.244 4.728 3.306 5.422 6.488 6.46 29.596 33.114 51.080 63.38 51.084 30.266 0 56.924-21.482 63.388-51.080 0.694-3.184 2.418-5.248 5.426-6.494 3.002-1.244 5.68-1.002 8.42 0.754 25.494 16.362 59.532 12.708 80.94-8.698 25.292-25.294 25.292-66.448 0.002-91.738l-50.58-50.58c34.34-0.814 62.032-28.982 62.032-63.514 0-25.696-15.34-47.864-37.336-57.868 32.626-35.696 60.732-68.366 84.92-98.714 1.796 19.156 17.952 34.202 37.566 34.202h116.454c20.814-0.002 37.748-16.936 37.746-37.748v-330.476h53.72c10.596 0 19.942-5.974 24.388-15.59 4.446-9.604 2.952-20.592-3.904-28.668zM300.856 809.374l73.172-73.168h124.754l73.168 73.168c12.814 12.816 12.814 33.666 0 46.48-10.846 10.846-28.102 12.696-41.030 4.398-11.502-7.38-25.336-8.616-37.954-3.386-12.62 5.228-21.528 15.882-24.442 29.23-3.278 15.008-16.788 25.904-32.122 25.904-15.334-0.002-28.842-10.898-32.118-25.906-2.914-13.348-11.822-24.002-24.444-29.23-12.624-5.224-26.456-3.99-37.952 3.386-12.93 8.3-30.186 6.45-41.034-4.396-12.814-12.814-12.814-33.666 0.002-46.48zM298.778 672.654c0-17.398 14.154-31.552 31.552-31.552h212.144c17.398 0 31.552 14.154 31.552 31.55 0 17.398-14.154 31.552-31.552 31.552h-212.144c-17.398 0.002-31.552-14.152-31.552-31.55zM648.318 56.412l-69.090 81.374c-6.858 8.082-8.35 19.070-3.902 28.682 4.446 9.61 13.79 15.584 24.386 15.584h53.72v281.84c-31.772 42.746-72.108 90.354-123.024 145.208h-188.020c-83.91-90.398-139.508-161.442-174.682-223.198-49.632-87.146-50.854-179.202-3.442-259.208 53.286-89.916 157.486-144.56 271.866-142.646 0.18 0.004 0.36 0.004 0.54 0 79.772-1.366 154.296 24.254 211.648 72.364zM745.506-17.794c-0.004-0.006-0.008-0.010-0.012-0.014zM888.018 150.050h-58.64c-8.836 0-16 7.164-16 16v346.478c0 3.116-2.63 5.746-5.746 5.746h-116.454c-3.114 0-5.746-2.632-5.746-5.748v-346.474c0-8.836-7.164-16-16-16h-58.64l138.614-163.256z" />
<glyph unicode="&#xe923;" glyph-name="phone" d="M812 898h-240c-115.782 0-210-94.218-210-210 0-105.616 78.37-193.272 180-207.862v-92.138c0-12.128 7.294-23.086 18.516-27.714 11.066-4.618 24.046-2.142 32.696 6.504l111.21 111.21h107.578c115.782 0 212 94.218 212 210s-96.218 210-212 210zM572 658.004c-16.572 0-30 13.432-30 30s13.428 30 30 30c16.568 0 30-13.432 30-30s-13.432-30-30-30zM692 658.004c-16.572 0-30 13.432-30 30s13.428 30 30 30c16.568 0 30-13.432 30-30s-13.432-30-30-30zM812 658.004c-16.572 0-30 13.432-30 30s13.428 30 30 30c16.568 0 30-13.432 30-30s-13.432-30-30-30zM674-2c49.628 0 90 40.372 90 90v120c0 12.92-8.262 24.376-20.508 28.448l-179.578 60c-8.79 2.958-18.398 1.612-26.132-3.486l-76.348-50.888c-80.86 38.554-176.806 134.502-215.362 215.362l50.888 76.348c5.126 7.706 6.416 17.344 3.486 26.132l-60 179.578c-4.070 12.244-15.526 20.506-28.446 20.506h-122c-49.628 0-90-39.95-90-89.578 0-345.644 328.356-672.422 674-672.422z" />
<glyph unicode="&#xe924;" glyph-name="address" d="M431.782 590.438c4.606-2.672 10.134-4.248 16.031-4.248 0.378 0 0.755 0.006 1.131 0.019l-0.054-0.001c6.497 0.613 12.425 2.57 17.663 5.59l-0.21-0.112 384.339 224.256c-16.772 28.837-47.483 47.942-82.665 48.058h-640.017c-35.198-0.118-65.908-19.223-82.433-47.605l-0.245-0.456zM864 749.76v-222.4c-28.377 10.541-61.159 16.641-95.365 16.641-0.223 0-0.446 0-0.67-0.001h0.035c-158.958-0.247-287.753-129.042-288-287.976v-0.024c0-0.058 0-0.126 0-0.195 0-11.21 0.698-22.257 2.052-33.099l-0.132 1.294h-353.92c-52.955 0.16-95.84 43.045-96 95.985v429.775l367.68-214.72c13.95-7.772 30.601-12.348 48.32-12.348s34.37 4.576 48.835 12.61l-0.515-0.262zM768 480c-123.712 0-224-100.288-224-224s100.288-224 224-224v0c17.673 0 32 14.327 32 32s-14.327 32-32 32v0c-88.366 0-160 71.634-160 160s71.634 160 160 160c88.366 0 160-71.634 160-160v0-32c0-17.673-14.327-32-32-32s-32 14.327-32 32v0 32c0 53.019-42.981 96-96 96s-96-42.981-96-96c0-53.019 42.981-96 96-96v0c17.354 0.113 33.573 4.869 47.508 13.086l-0.443-0.241c17.23-27.116 47.109-44.849 81.13-44.849 52.912 0 95.805 42.893 95.805 95.805 0 0.070 0 0.14 0 0.21v-0.011 32c-0.155 123.649-100.35 223.845-223.985 224h-0.015zM768 224c-17.673 0-32 14.327-32 32s14.327 32 32 32c17.673 0 32-14.327 32-32v0c-0.011-17.669-14.331-31.989-31.999-32h-0.001z" />
<glyph unicode="&#xe925;" glyph-name="24-7" d="M228.2 692.088c5.222-10.995 16.237-18.462 28.995-18.462 0.002 0 0.003 0 0.005 0h155.6v-54.962c0-17.673 14.327-32 32-32s32 14.327 32 32v0 54.962h14.74c17.673 0 32 14.327 32 32s-14.327 32-32 32v0h-14.74v192.030c-0.004 17.67-14.33 31.992-32 31.992-9.826 0-18.618-4.429-24.488-11.4l-0.040-0.048-187.612-224.030c-4.644-5.517-7.465-12.701-7.465-20.543 0-4.915 1.108-9.571 3.088-13.732l-0.083 0.194zM412.8 841.6v-103.978h-87.070zM574.74 161.866l167.644 261.734h-123.436c-17.673 0-32 14.327-32 32s14.327 32 32 32v0h181.934c17.673 0 32-14.327 32-32 0-6.41-1.885-12.379-5.13-17.385l0.076 0.125-199.2-311c-5.772-8.956-15.696-14.802-26.986-14.802-17.673 0-32 14.327-32 32 0 6.436 1.9 12.428 5.169 17.446l-0.075-0.123zM742.26 749.88c5.791-5.791 9.372-13.791 9.372-22.627s-3.582-16.836-9.372-22.627l-471.716-471.718c-5.777-5.709-13.721-9.236-22.49-9.236-17.673 0-32 14.327-32 32 0 8.768 3.527 16.713 9.239 22.493l471.707 471.715c5.791 5.792 13.792 9.375 22.63 9.375s16.839-3.583 22.63-9.375v0zM181 816.924c8.1 29.66 2.966 52-15.258 66.43-20.4 16.14-54.366 19-77.328 6.492-17.444-9.5-25.174-25.914-22.974-48.8 0.093-0.917 0.147-1.982 0.147-3.059 0-17.674-14.328-32.002-32.002-32.002-16.597 0-30.243 12.634-31.844 28.81l-0.011 0.133c-4.682 48.672 15.756 89.17 56.070 111.124 45.25 24.64 107.344 19.38 147.648-12.508 38.536-30.49 52.124-79.142 37.284-133.48-10.016-36.676-44.3-63.428-84-94.41-21.432-16.724-44.548-34.762-63.93-55h132.558c17.673 0 32-14.327 32-32s-14.327-32-32-32v0h-194.69c-0.003 0-0.007 0-0.010 0-17.673 0-32 14.327-32 32 0 5.083 1.185 9.889 3.294 14.157l-0.084-0.187c26.050 53.688 73.562 90.764 115.48 123.476 28.142 21.962 57.23 44.662 61.65 60.824zM1024 446.344c0-0.001 0-0.002 0-0.003 0-282.77-229.23-512-512-512-141.386 0-269.386 57.308-362.040 149.963v0c-92.633 92.145-149.962 219.703-149.962 360.651 0 0.488 0.001 0.977 0.002 1.465v-0.076c0 17.673 14.327 32 32 32s32-14.327 32-32v0c0-247.028 200.972-448 448-448s448 200.972 448 448c0 224.272-167.428 415.234-389.452 444.2-16.008 1.919-28.297 15.417-28.297 31.785 0 17.673 14.327 32 32 32 1.615 0 3.202-0.12 4.752-0.35l-0.175 0.021c252.549-34.231 445.154-248.448 445.172-507.654v-0.002z" />
<glyph unicode="&#xe926;" glyph-name="airplane" d="M1023.936 941.2c-0.368 4.874-2.348 9.736-5.598 13.002-5.434 5.458-14.504 7.36-21.694 4.422l-984.172-400.039c-7.076-2.876-11.896-9.528-12.424-17.148-0.528-7.618 3.33-14.872 9.944-18.696l174.816-101.090c0 0 149.022-321.863 149.104-322.039 6.058-13.084 24.724-15.344 33.744-4.108 0.050 0.062 0.108 0.116 0.156 0.178l118.672 151.522c0 0 187.4-108.368 187.624-108.498 10.010-5.788 23.908-1.57 28.534 9.754 0 0 319.923 783.75 320.055 784.072 1.080 2.648 1.466 5.66 1.24 8.668zM65.396 536.915l739.265 300.489-600.827-380.543-138.438 80.054zM367.275 345.457c-3.002-2.936-5.294-7.448-5.85-11.708l-20.236-154.644-113.632 245.428 626.555 396.839c0 0-486.587-475.669-486.837-475.915zM381.649 178.234l16.11 120.276 53.746-31.080-69.856-89.196zM674.271 184.822l-260.181 150.454 535.135 523.127-274.953-673.581zM245.182 181.164c-3.858 3.858-9 5.784-14.142 5.784-5.144 0-10.288-1.93-14.142-5.784 0 0-152.724-152.712-152.768-152.754-7.576-7.574-7.798-20.484 0-28.282 7.72-7.72 20.584-7.702 28.286 0l152.766 152.754c7.802 7.8 7.802 20.48 0 28.282zM21.704-22.294c-10.736 0-20.004-9.338-20.004-20.002 0-10.7 8.994-20 20.002-20.002 10.884 0 20.004 9.14 20.004 20 0.002 10.566-9.446 20.002-20.002 20.004zM522.229 126.158c-3.856 3.858-8.998 5.782-14.14 5.782-5.146 0-10.29-1.93-14.144-5.782l-99.018-99.010c-7.8-7.802-7.8-20.48-0.002-28.282 7.578-7.578 20.748-7.542 28.286 0l99.018 99.010c7.802 7.8 7.802 20.48 0 28.282zM152.166 362.181c-7.634 7.634-20.692 7.594-28.286 0 0 0-56.542-56.518-56.59-56.566-7.722-7.72-7.714-20.586 0-28.3 3.79-3.79 8.968-5.668 14.144-5.664 5.192 0.004 10.382 1.9 14.164 5.662l56.568 56.586c7.802 7.8 7.802 20.48 0 28.282zM372.059-44c0-11.046-8.954-20-20-20s-20 8.954-20 20c0 11.046 8.954 20 20 20s20-8.954 20-20zM44 234.019c0-11.046-8.954-20-20-20s-20 8.954-20 20c0 11.046 8.954 20 20 20s20-8.954 20-20z" />
<glyph unicode="&#xe927;" glyph-name="image" d="M816.64 32h-609.28c-61.502 0-111.36 49.858-111.36 111.36v0 609.28c0 61.502 49.858 111.36 111.36 111.36v0h609.28c61.502 0 111.36-49.858 111.36-111.36v0-609.28c0-61.502-49.858-111.36-111.36-111.36v0zM207.36 800c-26.156 0-47.36-21.204-47.36-47.36v0-609.28c0-26.156 21.204-47.36 47.36-47.36h609.28c26.156 0 47.36 21.204 47.36 47.36v0 609.28c0 26.156-21.204 47.36-47.36 47.36v0zM128 157.44c-9.685 0.031-18.367 4.304-24.288 11.056l-0.032 0.037c-4.726 5.542-7.601 12.788-7.601 20.705 0 9.823 4.426 18.612 11.393 24.482l0.048 0.040 218.453 184.32c14.752 12.513 34.007 20.122 55.039 20.122 23.475 0 44.737-9.479 60.165-24.819l103.676-103.676c3.705-3.183 8.559-5.121 13.867-5.121s10.162 1.938 13.895 5.145l-0.028-0.024 100.693 72.96c14.243 11.051 32.37 17.715 52.053 17.715s37.811-6.665 52.248-17.86l-0.195 0.145 138.667-110.507c7.42-5.947 12.131-15.010 12.131-25.173 0-17.775-14.409-32.184-32.184-32.184-7.612 0-14.607 2.642-20.117 7.060l0.063-0.049-138.24 110.933c-3.561 2.763-8.092 4.429-13.013 4.429s-9.453-1.666-13.062-4.465l0.049 0.036-100.693-78.080c-14.091-10.673-31.915-17.096-51.239-17.096-23.456 0-44.701 9.464-60.126 24.781l0.005-0.005-103.68 105.813c-3.767 3.41-8.786 5.496-14.293 5.496s-10.527-2.087-14.312-5.513l0.018 0.016-218.88-183.467c-5.314-4.515-12.253-7.26-19.833-7.26-0.227 0-0.454 0.002-0.681 0.007l0.034-0.001zM640 458.667c-64.801 0-117.333 52.532-117.333 117.333s52.532 117.333 117.333 117.333c64.801 0 117.333-52.532 117.333-117.333v0c0-64.801-52.532-117.333-117.333-117.333v0zM640 629.333c-29.455 0-53.333-23.878-53.333-53.333s23.878-53.333 53.333-53.333c29.455 0 53.333 23.878 53.333 53.333v0c0 29.455-23.878 53.333-53.333 53.333v0z" />
<glyph unicode="&#xe928;" glyph-name="video" d="M929.664 689.461c-9.792 5.963-20.998 9.202-32.461 9.382-11.456 0.18-22.758-2.705-32.736-8.358l-160.467-115.499v43.691c-0.032 28.279-11.283 55.391-31.277 75.388-20 19.996-47.11 31.245-75.39 31.279h-426.666c-28.28-0.034-55.391-11.283-75.388-31.279s-31.245-47.108-31.279-75.388v-341.333c0.034-28.282 11.283-55.392 31.279-75.386 19.997-20 47.108-31.245 75.388-31.283h426.666c28.28 0.038 55.39 11.283 75.39 31.283 19.994 19.994 31.245 47.104 31.277 75.386v43.776l163.411-117.331c9.76-4.877 20.608-7.174 31.507-6.675 10.893 0.499 21.485 3.77 30.765 9.51 9.274 5.741 16.928 13.76 22.234 23.29 5.306 9.536 8.090 20.262 8.083 31.174v373.93c0.038 10.915-2.733 21.656-8.045 31.191s-12.992 17.542-22.291 23.252zM661.331 277.344c-0.019-16.966-6.771-33.235-18.765-45.229-12.001-12-28.266-18.752-45.233-18.771h-426.666c-16.967 0.019-33.233 6.771-45.23 18.771-11.997 11.994-18.748 28.262-18.77 45.229v341.333c0.022 16.967 6.772 33.233 18.77 45.23s28.263 18.748 45.23 18.77h426.666c16.967-0.022 33.233-6.772 45.233-18.77 11.994-11.997 18.746-28.263 18.765-45.23v-341.333zM917.331 261.088c-0.051-3.373-0.877-6.682-2.406-9.683-1.536-3.002-3.738-5.613-6.432-7.629-2.701-2.016-5.824-3.392-9.139-4.013-3.309-0.627-6.72-0.48-9.965 0.416l-185.389 133.463v148.822l182.445 131.669c3.251 1.629 6.867 2.401 10.502 2.239 3.629-0.161 7.162-1.249 10.259-3.16s5.651-4.582 7.424-7.759c1.773-3.177 2.701-6.755 2.701-10.392v-373.973z" />
<glyph unicode="&#xe929;" glyph-name="arrow-point-to-right" d="M782.717 397.307l-440.304-440.289c-28.009-28.023-73.42-28.023-101.414 0-27.998 27.998-27.998 73.404 0 101.402l389.6 389.588-389.589 389.576c-27.998 28.008-27.998 73.413 0 101.41 27.997 28.009 73.406 28.009 101.414 0l440.304-440.297c13.999-14.005 20.99-32.341 20.99-50.687 0-18.354-7.005-36.704-21.001-50.703z" />
<glyph unicode="&#xe92a;" glyph-name="star" d="M512.067 874.675l131.84-267.094 294.825-43.094-213.33-207.788 50.345-293.545-263.68 138.665-263.68-138.665 50.347 293.545-213.334 207.788 294.826 43.094 131.84 267.094z" />
<glyph unicode="&#xe92b;" glyph-name="arrow-right" d="M740.413 725.55l-45.076-45.078 200.586-200.587h-889.923v-63.752h889.923l-200.586-200.581 45.076-45.082 277.54 277.542-277.54 277.538z" />
<glyph unicode="&#xe92c;" glyph-name="arrow-left" d="M283.587 725.55l45.075-45.078-200.585-200.587h889.922v-63.752h-889.922l200.585-200.581-45.075-45.082-277.54 277.542 277.54 277.538z" />
<glyph unicode="&#xe92d;" glyph-name="like" d="M279.625 7.057c-1.67-12.308-7.112-23.18-16.293-32.423l-0.018-0.016c-11.262-11.262-25.006-17.027-40.921-17.036h-0.036l-111.464-0.285c-31.86-0.073-58.009 25.854-58.085 57.776-0.512 151.109-1.080 302.22-1.592 453.354v0.024c0 15.981 5.634 29.709 16.888 41.038 11.266 11.34 24.93 17.052 40.944 17.125l111.421 0.229c17.736 0.082 33.668-7.894 44.356-20.471 16.019 31.368 40.163 64.463 60.788 93.333 16.84 23.572 31.421 43.794 34.709 57.324l49.059 201.984c14.401 59.424 74.799 96.238 134.222 81.777 59.399-14.398 96.149-74.756 81.786-134.158l-51.964-220.373c-1.796-7.56 0.519-14.946 6.315-20.168 2.758-2.482 5.247-2.965 11.551-3.421 10.883-0.792 28.672-0.543 61.042-0.768l238.759 0.341c0.419 0.002 0.835-0.016 1.251-0.053 29.928-2.629 49.722-12.94 62.306-27.828 12.609-14.915 18.234-34.932 18.134-58.626v-0.020c-0.191-33.808-20.289-66.248-55.746-79.854 16.856-15.162 26.252-37.082 26.092-65.213-0.163-37.189-24.289-70.28-71.15-81.847 15.258-14.988 27.935-36.245 27.782-63.292-0.165-37.385-24.556-70.58-71.328-81.998 15.93-14.79 29.899-35.508 29.781-63.123v-0.020c-0.272-47.462-40.279-86.263-86.657-87.28l-0.272-0.002-404.76-1.024c-29.453 0-54.826 18.318-65.131 43.48-2.941 7.141-9.496 11.654-17.221 11.558h-0.047l-4.501-0.042zM278.653 467.009l1.463-431.836 3.706 0.036c19.483 0.245 36.147-10.952 43.565-28.966l0.011-0.024c6.189-15.108 21.448-26.043 39.117-26.047l404.631 1.026c31.508 0.799 58.769 27.060 58.958 59.321 0.138 33.672-30.56 51.719-46.485 60.545-2.729 1.512-4.877 3.889-6.106 6.756s-1.469 6.062-0.683 9.082c0.786 3.019 2.556 5.69 5.027 7.593 2.473 1.903 5.507 2.93 8.628 2.918 51.311-0.191 81.025 24.892 81.168 58.228v0.020c0.189 32.971-27.579 53.099-44.065 59.815-3.021 1.231-5.521 3.475-7.070 6.347-1.547 2.874-2.046 6.195-1.414 9.396 0.634 3.201 2.36 6.082 4.886 8.15 2.524 2.066 5.69 3.19 8.953 3.177 52.144-0.191 81.938 24.852 82.080 58.232v0.020c0.185 32.434-18.419 52.616-48.544 59.087-3.493 0.75-6.567 2.803-8.602 5.739-2.032 2.936-2.872 6.538-2.346 10.071 0.528 3.533 2.38 6.734 5.18 8.951s6.34 3.283 9.899 2.985c45.443-3.829 73.873 25.449 74.066 58.234 0.069 16.199-2.872 30.152-11.491 40.35-8.559 10.126-22.457 16.048-42.692 17.92l-238.294-0.341c-33.385 0.229-51.723 0.024-62.945 0.841-15.816 1.149-21.397 4.334-28.318 10.565l-0.004 0.002c-13.664 12.308-19.089 29.736-14.859 47.534l51.966 220.376c0.004 0.028 0.011 0.057 0.020 0.084 10.754 44.391-16.689 89.52-61.082 100.276l-0.013 0.004c-44.388 10.806-89.507-16.695-100.263-61.082l-49.063-202.002c-3.807-15.672-19.643-39.72-39.15-67.025-25.918-36.279-58.399-79.313-69.835-116.358zM222.358-14.309c8.196 0 15.263 2.994 21.065 8.786 5.792 5.839 8.688 12.951 8.648 21.155l-1.536 453.325c-0.080 16.446-13.488 29.854-29.95 29.778l-111.431-0.229c-8.248-0.040-15.296-2.981-21.104-8.826-5.817-5.855-8.72-12.956-8.722-21.215 0.512-151.1 1.080-302.198 1.592-453.305v-0.007c0.040-16.442 13.505-29.785 29.909-29.747l111.53 0.285zM546.522 462.053c105.013 0 190.13-85.139 190.13-190.155 0-105.013-85.117-190.13-190.13-190.13-105.016 0-190.152 85.117-190.152 190.13 0 105.016 85.139 190.155 190.152 190.155zM546.522 433.942c-89.491 0-162.044-72.553-162.044-162.044 0-89.489 72.553-162.019 162.044-162.019 89.489 0 162.021 72.53 162.021 162.019 0 89.491-72.533 162.044-162.021 162.044zM512.574 276.309c0-7.756-6.298-14.056-14.056-14.056-7.756 0-14.056 6.3-14.056 14.056 0 9.274-7.513 16.809-16.787 16.809-2.208 0-4.394-0.434-6.433-1.278-2.039-0.846-3.891-2.084-5.454-3.644-1.56-1.563-2.798-3.415-3.642-5.454-0.846-2.039-1.28-4.225-1.28-6.433 0-7.756-6.3-14.056-14.056-14.056-7.758 0-14.056 6.3-14.056 14.056 0 24.792 20.099 44.92 44.92 44.92 24.792 0 44.898-20.126 44.898-44.92zM670.266 276.309c0-7.756-6.3-14.056-14.056-14.056s-14.056 6.3-14.056 14.056c0 9.274-7.515 16.809-16.789 16.809s-16.787-7.535-16.787-16.809c0-7.756-6.3-14.056-14.056-14.056-7.758 0-14.056 6.3-14.056 14.056 0 24.794 20.106 44.92 44.898 44.92 24.794 0 44.9-20.126 44.9-44.92zM478.068 203.128c-1.823 3.252-2.28 7.095-1.271 10.683 1.011 3.588 3.404 6.627 6.654 8.452 3.25 1.821 7.092 2.277 10.681 1.269 3.586-1.011 6.627-3.401 8.452-6.652 8.619-15.371 25.057-25.787 43.939-25.787 18.859 0 35.31 10.411 43.912 25.776 1.821 3.252 4.86 5.648 8.446 6.66 3.588 1.011 7.431 0.559 10.683-1.26 3.25-1.823 5.645-4.862 6.658-8.448 1.013-3.588 0.559-7.431-1.26-10.683-13.403-23.944-39.048-40.154-68.439-40.154-29.413 0-55.029 16.204-68.454 40.143z" />
<glyph unicode="&#xe92e;" glyph-name="massage" d="M960.102 220.518c98.954 138.834 83.83 329.043-51.328 452.945-61.752 56.61-140.483 91.852-225.521 101.694-0.532 0.662-1.085 1.301-1.669 1.916-73.979 76.85-180.269 120.926-291.609 120.926-211.878 0-389.976-157.866-389.976-360 0-70.87 22.014-138.808 63.832-197.484l-58.418-183.409c-1.796-5.637-1.885-11.679-0.256-17.367s4.904-10.767 9.412-14.597c4.508-3.835 10.049-6.246 15.925-6.938s11.825 0.374 17.099 3.057l177.654 90.332c36.484-15.708 75.172-26.020 115.236-30.71 77.284-81.27 184.147-122.885 293.474-122.885 56.832 0 113.459 11.581 164.721 33.597l177.664-90.337c4.209-2.145 8.868-3.261 13.588-3.261 20.244 0 34.76 19.732 28.59 39.107l-58.419 183.414zM237.356 271.959c-4.145 1.966-8.686 2.959-13.275 2.898s-9.101-1.178-13.191-3.256l-126.534-64.343 41.32 129.736c1.482 4.649 1.806 9.595 0.944 14.397-0.862 4.808-2.884 9.329-5.89 13.179-39.732 50.858-60.734 110.829-60.734 173.43 0 165.42 148.028 300 329.98 300 73.272 0 143.81-22.198 201.026-62.172-192.694-19.376-347.018-169.884-347.018-357.828 0-58.458 14.984-114.732 43.234-165.154-17.087 5.084-33.757 11.469-49.862 19.113zM813.046 151.603c-4.091 2.079-8.602 3.19-13.189 3.256-4.593 0.061-9.134-0.932-13.276-2.903-46.771-22.216-99.543-33.956-152.622-33.956-181.95 0-329.978 134.579-329.978 299.999s148.028 300 329.978 300c181.955 0 329.984-134.58 329.984-300 0-62.6-21.002-122.571-60.739-173.428-3.005-3.85-5.028-8.371-5.888-13.179-0.86-4.803-0.538-9.748 0.942-14.397l41.318-129.736-126.531 64.343zM512 387.999c16.568 0 29.998 13.433 29.998 30.001s-13.43 30-29.998 30c-16.568 0-30-13.431-30-30s13.432-30.001 30-30.001zM632.003 387.999c16.568 0 29.998 13.433 29.998 30.001s-13.43 30-29.998 30c-16.573 0-30.003-13.431-30.003-30s13.43-30.001 30.003-30.001zM752 387.999c16.568 0 29.998 13.433 29.998 30.001s-13.43 30-29.998 30c-16.568 0-29.998-13.431-29.998-30s13.43-30.001 29.998-30.001z" />
<glyph unicode="&#xe92f;" glyph-name="mail" d="M925.583 284.462c0-86.472-70.339-156.703-156.703-156.703h-514.113c-86.362 0-156.704 70.231-156.704 156.703v327.122c-0.019 27.869 7.447 55.233 21.618 79.23l250.856-250.856c37.53-37.64 87.788-58.38 141.34-58.38 53.442 0 103.699 20.74 141.229 58.38l250.854 250.856c14.172-23.997 21.642-51.36 21.622-79.23v-327.122zM768.881 768.286c35.666 0 68.588-12.070 94.92-32.152l-253.379-253.49c-26.23-26.116-61.235-40.602-98.544-40.602-37.42 0-72.424 14.486-98.652 40.602l-253.38 253.49c26.336 20.082 59.258 32.152 94.922 32.152h514.113zM768.881 828.75h-514.113c-119.722 0-217.168-97.446-217.168-217.168v-327.125c0-119.828 97.446-217.165 217.168-217.165h514.113c119.721 0 217.165 97.336 217.165 217.165v327.127c0 119.722-97.444 217.166-217.165 217.166z" />
<glyph unicode="&#xe930;" glyph-name="icon-2" d="M918.682 719.977c37.561 35.866 47.64 91.888 24.946 138.594-22.693 46.708-72.967 73.401-124.374 66.028-51.405-7.365-92.162-47.107-100.822-98.305-8.664-51.204 16.756-102.134 62.871-126.007-9.463-7.925-17.083-17.822-22.325-28.997-5.242-11.177-7.981-23.363-8.027-35.706v-136.504h-51.189v136.504c-0.091 60.438-45.274 111.303-105.278 118.519 35.341 33.693 46.616 85.507 28.469 130.84-18.147 45.339-62.054 75.058-110.884 75.058s-92.739-29.72-110.888-75.058c-18.143-45.332-6.872-97.146 28.472-130.84-60.006-7.216-105.187-58.078-105.281-118.519v-136.504h-51.189v136.504c-0.045 12.344-2.785 24.529-8.027 35.706-5.24 11.175-12.86 21.072-22.323 28.997 46.116 23.873 71.538 74.801 62.871 126.009-8.666 51.196-49.415 90.938-100.822 98.305-51.405 7.371-101.679-19.324-124.373-66.030s-12.614-102.728 24.944-138.594c-60.004-7.217-105.185-58.079-105.279-118.519v-255.947c0.031-22.575 6.459-44.678 18.539-63.748s29.317-34.328 49.714-44.003v-301.762h34.126v291.442c5.601-0.799 119.442-1.365 119.442-1.365 4.526 0 8.865-1.799 12.066-4.998 3.199-3.201 4.998-7.54 4.998-12.065v-273.010h136.504v324.198h119.443v-290.072h-68.254v-34.126h170.632v34.126h-68.252v290.072h119.441v-324.198h136.506v273.010c0 4.526 1.796 8.864 4.998 12.065 3.199 3.199 7.54 4.998 12.065 4.998 0 0 113.844 0.565 119.441 1.365v-291.437h34.126v301.759c20.398 9.677 37.634 24.932 49.713 44.005 12.081 19.071 18.508 41.174 18.539 63.748v255.947c-0.089 60.436-45.272 111.3-105.276 118.517v-0.002zM750.95 806.215c0 47.115 38.202 85.315 85.317 85.315s85.315-38.2 85.315-85.315c0-47.115-38.2-85.314-85.315-85.314-47.1 0.058-85.259 38.216-85.317 85.314zM548.443 720.9l-36.374-54.606-36.376 54.606h72.751zM426.752 840.341c0 47.115 38.202 85.315 85.317 85.315s85.315-38.2 85.315-85.315c0-47.115-38.2-85.315-85.315-85.315-47.1 0.060-85.259 38.217-85.317 85.315zM358.5 635.583c0.14 43.683 33.316 80.168 76.784 84.451l76.784-115.16 76.782 115.211c43.491-4.283 76.666-40.804 76.784-84.502v-136.504h-68.252v-102.378h-170.632v102.378h-68.252v136.504zM102.554 806.215c0 47.115 38.2 85.315 85.315 85.315s85.315-38.2 85.315-85.315c0-47.115-38.2-85.314-85.315-85.314-47.098 0.058-85.258 38.216-85.315 85.314zM341.437-29.876h-68.252v238.884c0 28.269-22.92 51.189-51.189 51.189h-102.378c-47.098 0.060-85.258 38.217-85.315 85.315v255.947c0.058 47.1 38.217 85.259 85.315 85.315h68.252c28.269 0 51.19-22.92 51.19-51.189v-170.63h153.567v-68.252h-204.756c-4.525 0-8.866 1.796-12.065 4.998-3.2 3.199-4.998 7.54-4.998 12.065v204.755h-34.126v-204.755c0-28.269 22.92-51.191 51.189-51.191h68.252c47.097-0.056 85.255-38.215 85.315-85.315v-307.135zM374.199 294.322c-3.733 25.943-15.912 49.931-34.653 68.252h345.043c-18.739-18.321-30.918-42.309-34.651-68.252h-275.739zM989.834 345.511c-0.060-47.097-38.217-85.255-85.315-85.315h-102.378c-28.269 0-51.191-22.92-51.191-51.189v-238.884h-68.252v307.135c0.058 47.1 38.217 85.259 85.315 85.315h68.254c28.269 0 51.189 22.922 51.189 51.191v204.755h-34.126v-204.755c0-4.526-1.799-8.867-4.998-12.065-3.201-3.201-7.54-4.998-12.065-4.998h-204.758v68.252h153.569v170.63c0 28.269 22.92 51.189 51.189 51.189h68.252c47.097-0.056 85.255-38.215 85.315-85.315v-255.947z" />
<glyph unicode="&#xe931;" glyph-name="misstion" horiz-adv-x="977" d="M891.725 20.878h-43.69v430.49c0 3.714-1.475 7.275-4.101 9.9s-6.186 4.101-9.9 4.101h-111.995c-3.712 0-7.273-1.475-9.898-4.101-2.627-2.625-4.101-6.186-4.101-9.9v-430.49h-47.025v344.595c0 3.712-1.475 7.273-4.101 9.898-2.625 2.627-6.186 4.101-9.9 4.101h-111.998c-3.712 0-7.273-1.473-9.898-4.101-2.627-2.625-4.101-6.186-4.101-9.898v-344.595h-47.025v258.7c0 3.714-1.475 7.275-4.101 9.9s-6.186 4.101-9.9 4.101h-111.995c-3.712 0-7.273-1.475-9.9-4.101-2.625-2.625-4.101-6.186-4.101-9.9v-258.7h-47.023v172.802c0 3.712-1.475 7.273-4.101 9.9-2.625 2.625-6.186 4.098-9.9 4.098h-111.998c-3.713 0-7.274-1.473-9.9-4.098-2.625-2.627-4.1-6.188-4.1-9.9v-172.802h-43.69c-3.713 0-7.274-1.475-9.9-4.101s-4.101-6.186-4.101-9.9v-48.877c0-3.712 1.475-7.273 4.101-9.9 2.625-2.625 6.186-4.098 9.9-4.098h788.437c3.714 0 7.275 1.473 9.9 4.098 2.625 2.627 4.101 6.188 4.101 9.9v48.877c0 3.714-1.475 7.275-4.101 9.9s-6.186 4.101-9.9 4.101h0.002zM736.040 437.369h83.996v-416.491h-83.996v416.491zM549.020 351.472h83.998v-330.594h-83.998v330.594zM362 265.577h83.996v-244.701h-83.996v244.701zM174.979 179.679h83.997v-158.801h-83.997v158.801zM877.726-28.002h-760.439v20.878h760.439v-20.878zM479.625 393.502c2.583-2.718 5.865-4.675 9.484-5.658s7.438-0.952 11.041 0.088c3.607 1.026 6.863 3.025 9.414 5.776 2.548 2.751 4.294 6.151 5.043 9.826l27.434 133.295c1.382 6.735-0.559 13.435-5.334 18.392-4.776 4.952-11.404 7.133-18.183 5.997l-133.181-22.365c-3.679-0.612-7.124-2.22-9.958-4.645s-4.955-5.578-6.13-9.121c-1.182-3.54-1.375-7.333-0.561-10.973 0.815-3.642 2.607-6.991 5.183-9.688l16.924-17.75c-40.087-38.023-194.895-178.113-379.543-258.029-3.117-1.347-5.637-3.784-7.091-6.854s-1.743-6.563-0.812-9.83c0.931-3.265 3.017-6.083 5.87-7.924 2.853-1.843 6.279-2.586 9.639-2.090 205.328 30.331 343.489 127.402 441.639 211.612l19.123-20.059zM123.227 253.494c130.953 74.138 243.593 169.602 297.169 222.846 2.6 2.583 4.082 6.079 4.131 9.742s-1.338 7.198-3.866 9.849l-16.817 17.641 108.577 18.234-22.365-108.665-18.493 19.398c-2.488 2.611-5.888 4.159-9.491 4.324-3.6 0.168-7.128-1.064-9.847-3.435-77.857-67.914-182.435-146.558-328.999-189.933zM778.035 952c-108.425 0-196.638-88.212-196.638-196.64 0-26.22 5.048-51.541 14.997-75.422l-73.623-73.623c-1.736-1.738-2.984-3.903-3.619-6.277s-0.635-4.873 0-7.247c0.635-2.371 1.885-4.536 3.621-6.274 1.738-1.738 3.901-2.988 6.274-3.626l44.735-11.985-3.039-3.037c-2.625-2.625-4.101-6.188-4.101-9.9 0.002-3.712 1.475-7.275 4.103-9.9 2.625-2.625 6.186-4.098 9.898-4.098 3.714 0 7.275 1.475 9.9 4.101l3.037 3.037 11.988-44.733c0.635-2.376 1.883-4.541 3.621-6.279s3.903-2.988 6.277-3.624c2.374-0.638 4.873-0.638 7.247 0 2.374 0.635 4.538 1.885 6.277 3.624l73.623 73.621c23.88-9.947 49.203-14.995 75.422-14.995 108.428 0 196.641 88.211 196.641 196.638s-88.213 196.64-196.641 196.64zM559.716 603.662l63.558 63.56 36.927-9.896-63.56-63.56-36.925 9.896zM743.973 755.36c0 18.782 15.281 34.062 34.062 34.062s34.064-15.28 34.064-34.062c0-18.782-15.281-34.061-34.064-34.061-4.238 0-8.283 0.812-12.027 2.234l21.928 21.927c2.581 2.634 4.019 6.181 4.001 9.87-0.016 3.689-1.492 7.221-4.098 9.829-2.609 2.608-6.142 4.082-9.83 4.1s-7.235-1.42-9.87-4.002l-21.928-21.928c-1.471 3.84-2.227 7.916-2.234 12.028l-0.002 0.002zM745.204 702.727c9.837-6.172 21.218-9.442 32.831-9.43 34.223 0 62.064 27.841 62.064 62.061s-27.841 62.062-62.064 62.062c-34.223 0-62.061-27.842-62.061-62.062-0.012-11.614 3.258-22.995 9.432-32.833l-28.211-28.209c-12.863 16.991-20.508 38.138-20.508 61.044 0 55.886 45.466 101.352 101.35 101.352s101.353-45.466 101.353-101.352c0-55.886-45.468-101.35-101.353-101.35-22.905 0-44.053 7.645-61.044 20.508l28.211 28.209zM626.337 537.039l-9.896 36.929 63.56 63.56 9.896-36.929-63.56-63.56zM778.035 586.722c-20.273 0-39.913 3.517-58.575 10.447-0.042 0.97-0.186 1.932-0.426 2.87l-12.809 47.795c21.234-14.252 46.234-21.851 71.808-21.823 71.324 0 129.352 58.026 129.352 129.349s-58.028 129.352-129.352 129.352c-71.324 0-129.35-58.028-129.35-129.352-0.028-25.574 7.571-50.576 21.825-71.81l-47.798 12.807c-0.938 0.242-1.899 0.386-2.867 0.428-6.933 18.665-10.449 38.302-10.449 58.574 0 92.988 75.65 168.64 168.639 168.64s168.641-75.652 168.641-168.64c0-92.988-75.653-168.638-168.641-168.638h0.002z" />
<glyph unicode="&#xe932;" glyph-name="check-star" d="M551.347 833.706c16.554-20.478 38.694-35.71 63.736-43.848 25.048-8.137 51.911-8.829 77.34-1.992l44.043 11.84c14.757 3.968 29.412-6.68 30.202-21.941l2.344-45.544c1.354-26.297 10.32-51.635 25.793-72.938 15.479-21.303 36.807-37.655 61.4-47.070l42.587-16.307c14.273-5.464 19.871-22.696 11.537-35.502l-24.872-38.229c-14.359-22.071-22.005-47.836-22.005-74.168s7.646-52.097 22.005-74.168l24.872-38.229c8.334-12.806 2.736-30.037-11.537-35.504l-42.587-16.304c-24.593-9.415-45.921-25.765-61.4-47.070-15.474-21.305-24.439-46.643-25.793-72.937l-2.344-45.545c-0.791-15.263-15.445-25.907-30.202-21.942l-44.043 11.844c-25.429 6.832-52.292 6.144-77.335-1.997-25.048-8.135-47.188-23.364-63.742-43.844l-28.669-35.47c-9.608-11.878-27.723-11.878-37.33 0l-28.67 35.47c-16.554 20.48-38.696 35.709-63.739 43.844-25.043 8.141-51.91 8.829-77.338 1.997l-44.043-11.844c-14.755-3.965-29.413 6.679-30.2 21.942l-2.347 45.545c-1.356 26.294-10.316 51.632-25.794 72.937s-36.807 37.655-61.398 47.070l-42.589 16.304c-14.269 5.467-19.87 22.699-11.536 35.504l24.872 38.229c14.36 22.071 22.004 47.836 22.004 74.168s-7.644 52.097-22.004 74.168l-24.872 38.229c-8.331 12.806-2.734 30.037 11.536 35.502l42.589 16.307c24.591 9.415 45.92 25.767 61.398 47.070s24.438 46.641 25.794 72.938l2.347 45.544c0.787 15.262 15.445 25.909 30.2 21.941l44.043-11.84c25.429-6.837 52.295-6.145 77.338 1.992s47.185 23.369 63.739 43.848l28.67 35.467c9.608 11.882 27.723 11.882 37.33 0l28.669-35.467zM566.226 904.375c-32.018 39.611-92.41 39.611-124.429 0l-28.669-35.466c-9.738-12.046-22.764-21.006-37.495-25.793s-30.536-5.193-45.495-1.17l-44.040 11.84c-49.187 13.227-98.045-22.272-100.667-73.139l-2.347-45.544c-0.798-15.469-6.068-30.374-15.173-42.905s-21.652-22.149-36.118-27.687l-42.589-16.309c-47.568-18.211-66.229-75.646-38.453-118.339l24.875-38.226c8.447-12.983 12.944-28.14 12.944-43.629s-4.496-30.646-12.944-43.629l-24.872-38.224c-27.779-42.695-9.117-100.13 38.45-118.34l42.589-16.31c14.466-5.535 27.013-15.155 36.117-27.688s14.376-27.438 15.174-42.906l2.347-45.545c2.621-50.864 51.48-86.363 100.667-73.136l44.040 11.839c14.958 4.022 30.763 3.618 45.495-1.166 14.731-4.79 27.757-13.75 37.495-25.793l28.669-35.47c32.019-39.606 92.411-39.606 124.429 0l28.672 35.47c9.734 12.043 22.761 21.003 37.49 25.793 14.734 4.784 30.538 5.188 45.5 1.166l44.038-11.839c49.186-13.227 98.042 22.272 100.665 73.136l2.35 45.545c0.796 15.468 6.070 30.373 15.172 42.906s21.652 22.153 36.119 27.688l42.587 16.31c47.57 18.21 66.23 75.645 38.451 118.34l-24.872 38.224c-8.448 12.983-12.942 28.14-12.942 43.629s4.494 30.646 12.942 43.629l24.872 38.226c27.779 42.693 9.119 100.128-38.451 118.339l-42.587 16.309c-14.467 5.538-27.017 15.156-36.119 27.687-9.108 12.531-14.376 27.436-15.172 42.905l-2.35 45.544c-2.623 50.867-51.479 86.365-100.665 73.139l-44.038-11.84c-14.962-4.023-30.766-3.616-45.5 1.17-14.729 4.787-27.756 13.747-37.49 25.793l-28.672 35.466zM707.959 592.966c10.849-11.024 10.701-28.752-0.33-39.595l-213.476-209.944c-32.424-31.886-84.696-30.993-116.011 1.985l-75.781 79.81c-10.648 11.213-10.189 28.936 1.024 39.586 11.213 10.648 28.936 10.189 39.584-1.026l75.784-79.811c9.755-10.268 26.035-10.547 36.134-0.614l213.477 209.939c11.025 10.843 28.757 10.696 39.595-0.331z" />
</font>
</defs>
</svg>
